This file was generated by Ched 2.7.0.0.
#TITLE ""
#ARTIST ""
#DESIGNER ""
#DIFFICULTY 0
#PLAYLEVEL
#SONGID ""
#WAVE ""
#WAVEOFFSET 0
#JACKET ""
#REQUEST "ticks_per_beat 480"
#00002: 4
#BPM01: 120
#00008: 01
#TIL00: ""
#HISPEED 00
#MEASUREHS 00
#00119:14
#00319:14
#00213:14
#00518:0014
#00618:0014
#00610:0041
#00714:0014
#00814:0014
#0091a:0014
#0101a:0014
#01112:0014
#01212:0014
#0131a:0014
#01310:0041
#01414:0014
#01518:0014
#01612:0014
#0171a:0014
#01814:0014
#01918:0014
#02012:0014
#02010:0041
#02314:0014
#02418:0014
#02718:0014
#02814:0014
#03012:16
#03018:0016
#03312:0016
#03418:16
#03412:0016
#03518:16
#03512:0016
#0401a:14
#0401f:11
#04114:14
#04518:14
#05012:2616
#0501f:21
#05010:0041
#05118:1616
#05212:16
#05218:0016
#05418:2616
#05512:1616
#05618:16
#05612:0016
#03118:0016
#03112:16
#03218:16
#03612:16
#04412:14
#02918:0026
#02910:0041
#05718:26
#05712:0026
#05818:26
#03710:0041
#004330:14
#005330:24
#0213a0:0014
#0223a0:0024
#025320:0014
#026320:0024
#032380:0016
#033380:26
#036320:0016
#037320:3636
#038320:0036
#039320:3626
#042380:1434
#043380:24
#046340:1434
#047340:24
#048380:14000024
#053320:1626
#058380:16
#0603a0:34
#0613a0:24
#062320:14
#064320:24
