This file was generated by Ched 2.7.0.0.
#TITLE ""
#ARTIST ""
#DESIGNER ""
#DIFFICULTY 0
#PLAYLEVEL
#SONGID ""
#WAVE ""
#WAVEOFFSET 0
#JACKET ""
#REQUEST "ticks_per_beat 480"
#00002: 4
#BPM01: 120
#00008: 01
#TIL00: ""
#HISPEED 00
#MEASUREHS 00
#0011b:13000000000000000000000000130000
#00116:00130000000000000000000013000000
#00119:00001300000000000000001300000000
#00114:00000013000000000000130000000000
#00117:00000000130000000013000000000000
#00112:00000000001300001300000000000014
#0011a:00000000000000140000000000000000
#00216:00000000000000000013000000000000
#00219:0000000000130000
#00214:00000000000000000000001300000000
#00217:00000013
#0021b:0000000013000023
#00212:0000000000000023
#0051b:00130000
#00515:00000000001300000000000000000000
#00512:00000000000000001200001200000000
#00518:0000001300000013
#00614:12000012000000000000000000000000
#00616:00000000000000001200001200001200
#0061b:0000001300000000
#00610:0041
#00716:0012000000000000
#00715:00000000001300000000000000000000
#00718:00000000130000001200001200000000
#0071b:0000001300000000
#00712:0000000000000013
#0081a:12000012000000000000000000000000
#0081c:00000000000000001200001200001200
#00815:0000001300000000
#0091c:00001200000000001200001200000000
#00918:00000000001300000000000000000000
#00912:00130000
#00915:0000001300000013
#01312:0012000000000012
#01318:0000001212000000
#0131c:0000000000000012
#0131a:0000120000120000
#01316:00000000001200000000000000000000
#01310:0041
#01414:0000001200000000
#01416:0000000000000012
#01418:12
#0141a:0012001200120012
#0141c:0012
#01516:00001200001200000000120000000000
#01518:0000120000000012
#0151a:0012000000000000
#0151c:0000001200000000
#01514:0000000012000012
#01512:12
#0161a:0000001200000000
#0161c:0000000000000012
#01612:1200001200000000
#01614:0012
#01616:0012000000120012
#0171c:0012000000000012
#01718:00000000001200000000000000000000
#01714:0000120000120000
#01716:0012001212000000
#01712:1200000000000012
#02212:13000013
#0221b:1313
#02218:00130000
#02215:00130000
#0231b:1323
#02312:00130023
#02317:00000000000000000000001300000000
#02315:00000000000000000000000000000013
#0211b:0013
#02118:0012001200001300
#02112:0012000013000000
#02116:00000000001200000000000000000000
#0211a:00120000
#0211c:12
#02115:00000013
#02415:00130000000000002300001300000000
#02418:13001300000000130000000023000013
#02412:00230000
#0241b:00230000
#02515:1313000000001300
#02518:00130000000000000000000013000000
#02512:00231300
#0251b:00231300
#02617:00000013
#02612:13
#02615:00130000
#02616:0013
#0261b:13
#02618:00130000
#02716:1323
#02717:00130023
#02712:00000000000000000000001300000000
#02718:00000000000000000000000000000013
#0271b:0000003300000000
#02818:00130000000000001200120000000000
#02815:13001300000000130000000000000000
#02816:0000000000001212
#0281b:00230000
#02812:00230000
#0291b:0000000000001313
#02915:00130013000000000000000000130013
#02918:1313161600000000
#02912:00000000001600160000000000000000
#02910:0041
#03018:13130000001300130013000000130013
#03015:00000023000013000000130013000000
#03012:0000000013000013
#0301b:00000023000000000000001300000000
#03115:13130000000000130000001300000013
#03112:00000023001300000013000000130000
#03118:00000023000013000000130000001300
#03215:00000013001300001300130000000000
#03218:00001300000013000013001300000000
#03212:00130000000000000000000013001300
#0321b:00000000000000130000000000130013
#03318:00230000001300130000000000130013
#03315:23000000000013000033000000000000
#03312:00000023000000000000000013001300
#0331b:00000023000000000000003300000000
#03715:00130013000000000000130000000013
#03718:23001300130000000013000013000000
#03712:00000000001300130000001300130000
#0371b:0000000023000013
#03710:0041
#03818:00130013000000000013001300000000
#03815:0013130023130000
#0381b:00000000000013000000000000130013
#03812:0000001300001300
#03915:00130013130000000000000000001300
#03918:0013000000000000
#03912:0000001300000000
#0391b:0000001300000000
#04118:00000000120012001200001200000000
#04116:00120012000000000012000000000000
#0411c:00000000000000000000000000120000
#04115:00000000000000000000000000000012
#04119:00000000000000000000000000000012
#0411a:1212000000000000
#04114:00000000001200120000000000000000
#04212:00120000000000000012000000000000
#04219:00000012000000120000001200000000
#04215:00000012000000120000001200000012
#0421c:00000000001200000000000000120000
#0431c:12000000000000000000002200000000
#04317:00120000000000000000000000000000
#04319:0012000000000000
#04314:00000012000000000000000000000000
#0431b:00120000
#04316:00000000001200000000000000001200
#04318:00000000000012000000000000120012
#04313:00000000000000120000000000000000
#0431a:0012
#04315:00000000000000000012000000000000
#04312:00000000000000000000002200000000
#0471b:00130000000000000000002300000000
#04715:00001300001300000000130000130000
#04718:00000023000013000013000000001300
#04712:00000000000000230000000000000023
#04915:0000000000000013
#04918:00000000000000000000000000130013
#05012:13001300000000000000002300000000
#05017:00130013000000000000000000000000
#05014:0000131300000000
#05019:00000000001300130000000000000000
#05015:00000000000000000000000000130013
#05018:0000000000000013
#05016:0023
#0501b:00000000000000000023002300000000
#0501f:21
#05010:0041
#0511b:13001300000000000000002300130000
#05115:0000000000000013
#05118:00000000000000000000000000000013
#05116:00130013000000000000000000000000
#05119:0000131300000000
#05114:00000000001300130000000000000000
#05117:0023
#05112:00000000000000000023002300000000
#05212:00130000000000000013000000000000
#05218:00001300000000130000130000001300
#05215:00000013000013000000001300000013
#0521b:00000000001300000000000000130000
#05312:13000000000000001300002300000000
#05318:00001300000000130000000000130013
#05315:00000013000013000000000000001300
#0531b:00000000001300000013002300000000
#05416:00000000000000002300000000130000
#0541b:00000000000000000023002300001300
#05417:00130013000000000000000000000000
#05419:00000000001300130000000000000000
#05412:23001300000000000000002300000000
#05414:0000231300000000
#0101a:12000012000000000000000000000000
#01018:00000000000000001200001200001200
#01012:0000001300000000
#01118:00001200001300000000000000000000
#01115:00130000
#01112:0000001300000000
#01116:00000000000000001200001200000000
#0111b:0000000000000013
#01214:12000012000000000000000000000000
#01212:00000000000000001200001200001200
#01218:0000001300000000
#02012:0000000000000012
#02018:0012000000120012
#02014:0000001200000000
#0201c:1200001200000000
#0201a:0012
#02010:0041
#05515:00000000000000000000000000130000
#05518:0000000000000013
#05512:00000000000000000023002300000013
#05516:00130013000000000000000000000000
#05514:00000000001300130000000000000000
#0551b:23001300000000000000002300000000
#05519:0000231300000000
#05517:0023
#05618:00130000000013000013000000000000
#05615:00001300001300000000130000000026
#0561b:00000013000000000000001300001300
#05612:00000000000000130000000000130000
#0571b:00130000000013000013000000000000
#05712:00001300001300000000130000000000
#05715:00000026000000260000002600130000
#05718:0000000000000013
#00312:13000000000000140000000000130000
#00317:00130000000000000000000013000000
#00314:00001300000000000000001300000000
#00319:00000013000000000000130000000000
#00316:00000000130000000013000000000000
#0031b:00000000001300001300000000000000
#0031a:00000000000000000000000000000014
#0181a:0000001200000000
#01818:0000000000000012
#01816:12
#01814:0012001200120012
#01812:0012
#01918:00001200001200000000120000000000
#01916:0000000000000012
#01914:0012120000000000
#01912:0000001200000000
#0191a:0000000012000012
#0191c:12
#03415:13130000001300130013000000130013
#03418:00000023000013000000130013000000
#0341b:0000000013000013
#03412:00000023000000000000001300000000
#03518:13130000000000130000001300000013
#0351b:00000023001300000013000000130000
#03515:00000023000013000000130000001300
#03618:00000013001300002300130000000000
#03615:00001300000013000013001300000000
#0361b:00130000000000000000000013000000
#03612:00000000000000130000000000130013
#0481c:1212
#0481a:0012001200120000
#04818:00120000
#04618:0000000000000013
#0461c:00120000000000000012000000000000
#04615:00000012000000120000001200000023
#04619:00000012000000120000001200000000
#04612:00000000001200000000000000130000
#04512:00000000000000000000000000120000
#04519:00000000000000000000000000000012
#04515:00000000000000000000000000000012
#04516:00000000120012001200001200000000
#04518:00120012000000000012000000000000
#04514:1212000000000000
#0451a:00000000001200120000000000000000
#0581b:13003300003300330033000033003300
#05812:13
#06018:13
#06015:13
#06012:00003300003300330033000033003300
#0621b:13003300003300330033000033003300
#06212:13
#0401c:1212000000000000
#04016:00120012000000000000001200000012
#04018:00000000001200120012000000001200
#04012:0000001212000000
#04014:00000000000000000000000000120000
#0401f:11
#04412:1212000000000000
#04418:00120012000000000000001200000012
#04416:00000000001200120012000000001200
#0441c:0000001212000000
#0441a:00000000000000000000000000120000
#00413:00000000000000001414141414141414
#00412:0000000000000000000000000000000000140000001400000014000000140000
#00414:0000000000000000000000000000000000000014000000140000001400000014
#0591b:33003300003300330033000033003300
#0631b:33003300003300330033000033003300
#06112:33003300003300330033000033003300
#02252:53000063
#0225b:1353
#02258:00130000
#02255:00530000
#0235b:63
#02352:00530000
#0215b:0013
#02158:00000013
#02152:0053
#02155:00000053
#02657:00000053
#02652:13
#02655:00130000
#02656:0063
#0265b:63
#02658:00630000
#02756:53
#02757:00630000
#05158:00000000000000000000000000000013
#05152:00000000000000000000001300000000
#0515b:00000000000000000000001300000000
#05255:00000013000000000000001300000000
#05258:00000000000000130000000000000000
#05552:00000000000000000000001300000013
#0555b:00000000000000000000001300000000
#0565b:00000013000000000000001300000000
#05652:00000000000000130000000000000000
#05655:00000000000000000000000000000016
#03152:00000013000000000000000000000000
#03158:00000013000000000000000000000000
#03055:00000013000000000000000000000000
#0305b:00000013000000000000000000000000
#05052:00000000000000000000001300000000
#0505b:00000000000000000000001300000000
#05352:00000000000000000000001300000000
#0535b:00000000000000000000001300000000
#02552:0013
#02555:00000013
#0255b:0063
#02558:00000063
#0355b:00000013000000000000000000000000
#03555:00000013000000000000000000000000
#03458:00000013000000000000000000000000
#03452:00000013000000000000000000000000
#05452:00000000000000000000001300000000
#0545b:00000000000000000000001300000000
#05755:00000016000000160000001600000000
#0625b:53
#06252:63
#0585b:53
#05852:63
#06058:23
#06055:23
#04058:00000000000000000052000000000000
#04056:00000052000000000000000000000000
#04156:00000000000000000052000000000000
#04558:00000000000000000062000000000000
#04458:00000062000000000000000000000000
#04456:00000000000000000062000000000000
#00453:00000000000000005454545454545454
#00452:0000000000000000000000000000000000240000002400000024000000240000
#00454:0000000000000000000000000000000000000024000000240000002400000024
#03352:00000013000000000000000000000000
#0335b:00000013000000000000000000000000
#0023b0:13
#0023a0:00330000000000000000000000000000
#002390:0033000000000000
#002380:00000033000000000000000000000000
#002370:00230000
#002321:00130000
#002331:00000000003300000000000000000000
#002341:0000003300000000
#002351:00000000000000330000000000000000
#002361:0023
#004321:13
#004331:00330000000000000000000000000000
#004341:0033000000000000
#004351:00000033000000000000000000000000
#004361:00230000
#0043b0:00130000
#0043a0:00000000003300000000000000000000
#004390:0000003300000000
#004380:00000000000000330000000000000000
#004370:0023
#004331:00000000000000001454545454545454
#004321:0000000000000000000000000000000000540000005400000054000000540000
#004341:0000000000000000000000000000000000000054000000540000005400000054
#005331:24
#013321:0000000012220000
#014341:1222000000000000
#014361:0000000012220000
#015381:0000000012220000
#0163a1:1222000000000000
#0163c1:0000000012220000
#0173c1:0000000012220000
#0183a1:1222000000000000
#018381:0000000012220000
#019361:0000000012220000
#020341:1222000000000000
#020321:0000000012220000
#021321:0013
#021351:00000033
#022321:3323
#022351:00330000
#0223b0:0013
#022370:00000023
#022321:00000013
#023361:23
#0233b0:13
#023370:00230000
#023321:00130000
#023361:0023
#0253b1:0013
#025381:00000033
#0263b1:3323
#026381:00330000
#026360:0013
#026320:00000023
#026371:00000013
#0273b1:23
#027360:13
#027320:00230000
#027371:00130000
#0273b1:0000003323000000
#0293b1:0013
#029381:0000000000230000
#029350:0000000000130000
#029320:00000023
#033320:0013
#033350:00000000000000000033230000000000
#033381:0000000000130000
#0333b1:00000000000000000000003323000000
#039361:0000000014240000
#039351:0000000000000000000000000000000000000000000000000000000000000000000000000000000000000000000000000000000000000000000000000000000000540054005400540054005400540054000000000000000000000000000000000000000000000000000000000000000000000000000000000000000000000000
#039371:00000000000000000000000000000000000000000000000000000000000000000054545454545454000000000000000000000000000000000000000000000000
#040361:00000012000000000000000000000000
#040321:00000000002200000000000000000000
#040381:00000000000000000012000000000000
#0403c1:00000000000000000000002200000000
#041361:00000000000000000012000000000000
#041321:00000000000000000000002200000000
#044381:00000012000000000000000000000000
#0443c1:00000000002200000000000000000000
#044361:00000000000000000012000000000000
#044321:00000000000000000000002200000000
#045381:00000000000000000012000000000000
#0453c1:00000000000000000000002200000000
#047321:00000000000000000000000000000013
#048321:0023
#048321:000000000000000000000000000000000000153335323533
#049321:350034003500320035003300350034003500320035003300350000330000350000320000250000000000000000000000
#048390:000000000000000000153535
#0483b0:000000000000000000000000000000000000003300000033
#0483c0:0000000000000032
#049390:350035003500350035003500350000350000250000000000
#0493a0:003400000000003400000000000000000000000000000000
#0493c0:00003200000032000000003200000000
#0493b0:000000000000000000003300000000000000000000003300000000330000000000000000000000000000000000000000
#0573b0:00000000000000000000000000000013
#0583b0:33003300003300330033000033003300
#0593b0:33003300003300330033000033003300
#060380:33
#0623b0:33003300003300330033000033003300
#0633b0:33003300003300330033000033003300
#064380:23
#057321:00000000000000000000000000000013
#058321:33
#060351:33
#060321:00003300003300330033000033003300
#061321:33003300003300330033000033003300
#062321:33
#064351:23
