This file was generated by Ched 2.7.0.0.
#TITLE ""
#ARTIST ""
#DESIGNER ""
#DIFFICULTY 0
#PLAYLEVEL
#SONGID ""
#WAVE ""
#WAVEOFFSET 0
#JACKET ""
#REQUEST "ticks_per_beat 480"
#00002: 4
#BPM01: 120
#00008: 01
#TIL00: ""
#HISPEED 00
#MEASUREHS 00
#0011b:13
#00115:0013000000000013
#00118:00131313
#00112:0000001300130000
#00518:0000130000000013
#00515:0000001300000000
#0051b:0013
#00612:13
#0061b:0013
#00615:0000001300000000
#00610:0041
#00915:00130000
#00918:0000001300000000
#0091b:0013
#00912:0000000000000013
#01018:13
#01015:0013
#0101b:0000001300000000
#01318:00130000
#01315:0000001300000013
#01312:0013
#0131b:0000000000130000
#01310:0041
#0141b:1313000000000013
#01418:0000001300000000
#01412:0000000013130000
#01515:13130000
#01518:0013001300000013
#0151b:0013
#01512:0000000000130000
#01615:0000001300000013
#01612:1313000000000000
#0161b:0000000013130000
#01718:1300130000130000
#0171b:0013000000000000
#01715:0000001300000000
#01712:0000000013000013
#01818:1313000000000013
#01815:0000001300000000
#0181b:0000000013130000
#02315:0013
#02312:00000023
#02318:00000023
#02418:1313000000002300
#02415:00130000230000001300000000000000
#0241b:00230000
#02412:00000023
#0281b:00001313
#02812:0000230000130013
#02815:1313000000000000
#02818:00130000230000000000000000000000
#03218:00000000001300130000000000000000
#03215:0033001300001300
#03212:00000000000000001333333300333333
#03612:00000000001300130000000000000000
#03618:0033001300000000
#0361b:0000000023130000
#03615:00000000000000000013001300000000
#03712:2313000000000013
#03718:00130013000000002300000000130000
#03715:00000000000000000013000013000000
#0371b:0000000000130000
#03710:0041
#0381b:13130000
#03815:00130000000000000000000000000000
#03818:00001300000000000013001300000000
#03812:00000013000000002300130000000000
#03816:0000001400000000
#0391b:2313000000000000
#03915:00130013000000000000000000000000
#03918:0000000000000013
#0021b:13
#00218:00001300000000000033333300000000
#00215:0000130000000023
#00212:0000001300000000
#00312:13
#00318:0013000000000013
#00315:00131313
#0031b:0000001300130000
#00412:13
#00415:00001300000000000000001400000014
#00418:00130000
#0041b:0000001300000000
#00414:0000000014141414
#00413:00000000000000000014000000140000
#00715:0000130000000013
#00718:0000001300000000
#00712:0013
#0081b:13
#00812:0013
#00818:0000001300000000
#01118:00130000
#01115:0000001300000000
#01112:0013
#0111b:0000000000000013
#01215:13
#01218:0013
#01212:0000001300000000
#01915:1300130000130000
#01912:0013000000000000
#01918:0000001300000000
#0191b:0000000013000013
#02015:1313000000000000
#02018:0000001300000013
#02012:0000000013130000
#02010:0041
#02115:13
#02118:0013001300000000
#02518:1313000000000000
#02515:00130000230000000000000000000000
#0251b:00230000
#02718:0013
#0271b:00000023
#02715:00000023
#02918:00333333000000000000130000000000
#02915:00000013
#0291b:0000000000000013
#02912:00000000003333330000000000000000
#02910:0041
#03015:1313
#0301b:0000001300000000
#03018:0000000000130013
#03012:00330023000000000000000013000000
#03112:1300000000000033
#03115:00330023000000000000000000000000
#0311b:0000003300330000
#03312:00000023001300000000000000001300
#03318:0000001300001300
#03315:00000000000000130000130000000000
#0331b:0013
#03418:1313
#03412:0000001300000000
#03415:0000000000130013
#0341b:00330023000000000000000013000000
#0351b:1300000000000033
#03518:00330023000000000000000000000000
#03512:0000003300330000
#04012:13000000000000000000001300000000
#04015:0013000013000013
#04018:00000000130000000013000000000000
#0401b:0000001300000000
#0401f:11
#0411b:13000000000000000000001300000000
#04118:0013000013000000
#04115:00000000130000000013000000000000
#04112:0000001300000033
#04215:00000000000000000000000000130000
#04212:00003300000000000000000000000033
#04218:0000003300330000
#04318:0013000000000013
#04315:00131313
#0431b:0000001300130000
#0441b:13000000000000000000001300000000
#04418:0013000013000013
#04415:00000000130000000013000000000000
#04412:0000001300000000
#04512:13000000000000000000001300000000
#04515:0013000013000000
#04518:00000000130000000013000000000000
#0451b:0000001300000033
#05215:00000000000000000000000000130013
#05218:0000000000330013
#0521b:0000003300000000
#05212:0033000000000000
#05015:0013000000000000
#05018:00132300
#05012:0000001300000013
#0501b:13000000000000000033000000000000
#0501f:21
#05010:0041
#05118:13000000000000000033000000000000
#05115:0013001300000000
#0511b:00132300
#05112:0000000000000033
#0531b:13333333003333330000002300130000
#05318:00000000130000000000000000000013
#05315:0000000000000013
#05418:0013000000000000
#05415:00132300
#0541b:0000001300000013
#05412:13000000000000000033000000000000
#05515:13000000000000000033000000000000
#05518:0013001300000000
#05512:00132300
#0551b:0000000000000033
#04718:00003300000000000000000000230000
#04712:0000003300330000
#0471b:00000000000000000000000000003333
#0461b:0033000000000000
#04615:0000003300330000
#04618:0000000000000033
#05615:0000000000330000
#05612:0000003300000000
#0561b:0033000000000033
#05718:0033000000000000
#05712:0000003300000000
#05715:0000000000330000
#0571b:0000000000000033
#0581b:00003300003300330033000033003300
#0591b:00003300003300330033000033003300
#0601b:33003300003300330033000033003300
#0611b:33003300003300330033000033003300
#0621b:33003300003300330033000033003300
#0631b:33003300003300330033000033003300
#00454:0000000054545454
#00453:00000000000000000024000000240000
#00455:00000000000000000000002400000024
#03055:53
#03052:00000013000000000000000000000000
#03152:63
#03155:00000013000000000000000000000000
#03252:0053
#03255:00000023
#03458:63
#0345b:00000013000000000000000000000000
#0355b:53
#03558:00000013000000000000000000000000
#04255:00000000000000000000000000530000
#0535b:63000000000000000000001300000000
#05358:00230000
#04758:00000000000000000000000000530000
#0515b:0053
#05158:00000000000000000000001300000000
#05058:0053
#0505b:00000000000000000000001300000000
#05452:00000000000000000000001300000000
#05455:0053
#05555:00000000000000000000001300000000
#05552:0053
#03352:00000013000000000000000000000000
#0023b0:0013
#002380:00000000000000000033333323000000
#004340:0000000014545454
#004330:00000000000000000054000000540000
#004350:00000000000000000000005400000054
#005340:24
#0213b0:0013
#021380:00000023
#021351:0013
#021321:00000023
#022321:13
#022351:00230000
#022380:13
#0223b0:00230000
#0223b0:0013
#022380:00000023
#022351:0013
#022321:00000023
#023321:13
#023351:00230000
#023380:13
#0233b0:00230000
#025320:0013
#025350:00000023
#025381:0013
#0253b1:00000023
#0263b1:13
#026381:00230000
#026350:13
#026320:00230000
#026320:0013
#026350:00000023
#026381:0013
#0263b1:00000023
#0273b1:13
#027381:00230000
#027350:13
#027320:00230000
#0293b0:13
#029380:00333333230000000000000000000000
#029351:00130000
#029321:00000000003333332300000000000000
#030351:13
#030321:00330023000000000000000000000000
#031321:13
#031351:00330023000000000000000000000000
#031381:00000000001300000000000000000000
#0313b1:00000000000033230000000000000000
#0313b1:00000000000000000013330000000000
#031381:00000000000000000000002300000000
#031351:00000000000000000000000000130000
#031321:00000000000000000000000000003323
#032321:00130000000000000000000000000000
#032351:00003323000000000000000000000000
#032321:00000000000000001333333300333333
#032351:00000033
#033321:33330023000000000000000000000000
#034381:13
#0343b1:00330023000000000000000000000000
#0353b1:13
#035381:00330023000000000000000000000000
#035351:00000000001300000000000000000000
#035321:00000000000033230000000000000000
#035321:00000000000000000013330000000000
#035351:00000000000000000000002300000000
#035381:00000000000000000000000000130000
#0353b1:00000000000000000000000000003323
#0363b1:00130000000000000000000000000000
#036381:00003323000000000000000000000000
#0363b1:0000000000001323
#037321:0000132300000000
#038321:0000000000001323
#0393b1:0000132300000000
#039361:0000000014240000
#039351:00000000000000000000000000000000000000000000000000000000000000000054005400540054000000000000000000000000000000000000000000000000
#039371:0000000000000000000000000000000000545454000000000000000000000000
#041321:00000000000000000000000000133300
#041351:00000000000000000000000000000033
#042351:00330000000000000000000000000000
#042321:00003323000000000000000000000000
#042381:00000000001333000000332300000000
#0423b1:00000000000000330033000000000000
#042351:00000000000000000000000000130000
#042321:00000000000000000000000000000033
#043321:23
#0453b1:00000000000000000000000000133300
#045381:00000000000000000000000000000033
#046381:00330000000000000000000000000000
#0463b1:00003323000000000000000000000000
#046351:00000000001333000000332300000000
#046321:00000000000000330033000000000000
#046381:00000000000000000000000000133300
#0463b1:00000000000000000000000000000033
#0473b1:00330000000000000000000000000000
#047381:00003323000000000000000000000000
#047321:00000000001333000000332300000000
#047351:00000000000000330033000000000000
#047381:00000000000000000000000000130000
#0473b1:00000000000000000000000000003333
#0483b1:0023
#048321:000000000000000000180038
#048341:000000000034
#049331:36
#049321:000038000000380000003800000000380000000000000000
#049341:000034003400340000240000
#050381:0013
#0503b1:00000000000000000033002300000000
#0513b1:0013
#051381:00000000000000000033002300000000
#051351:00000000000000000000000000130000
#051321:00000000000000000000000000003323
#052321:00133300000000000000000000000000
#052351:00000023000000000000000000000000
#052381:00000000001300000000000000000000
#0523b1:00000000000033230000000000000000
#0523b1:00000000000000000013000000000000
#052381:00000000000000000000332300000000
#0533b1:13333333003333333333002300000000
#053381:00330000
#054351:0013
#054321:00000000000000000033002300000000
#055321:0013
#055351:00000000000000000033002300000000
#055381:00000000000000000000000000130000
#0553b1:00000000000000000000000000003323
#0563b1:00133300000000000000000000000000
#056381:00000023000000000000000000000000
#056351:00000000001300000000000000000000
#056321:00000000000033230000000000000000
#056321:00000000000000000013000000000000
#056351:00000000000000000000332300000000
#056381:00000000000000000000000000130000
#0563b1:00000000000000000000000000003323
#0573b1:00130000000000000000000000000000
#057381:00003323000000000000000000000000
#057351:00000000001300000000000000000000
#057321:00000000000033230000000000000000
#057321:00000000000000000013000000000000
#057351:00000000000000000000332300000000
#057381:00000000000000000000000000130000
#0573b1:00000000000000000000000000003333
#0583b1:33003300003300330033000033003300
#059341:3a
#0593b1:00003300003300330033000033003300
#0603b1:33003300003300330033000033003300
#0613b1:33003300003300330033000033003300
#0623b1:33003300003300330033000033003300
#0633b1:33003300003300330033000033003300
#0643b1:23
