This file was generated by Ched 2.7.0.0.
#TITLE ""
#ARTIST ""
#DESIGNER ""
#DIFFICULTY 0
#PLAYLEVEL
#SONGID ""
#WAVE ""
#WAVEOFFSET 0
#JACKET ""
#REQUEST "ticks_per_beat 480"
#00002: 4
#BPM01: 120
#00008: 01
#TIL00: ""
#HISPEED 00
#MEASUREHS 00
#05412:00000000000019130000002300130000
#05418:00000000001300000000000000000013
#05415:29001913260000002623000000001300
#0541b:00130000000000000000002300000000
#04816:00121200
#04812:12
#04814:0012000000120000
#04818:0000001200000000
#03012:00000024001300000000000000001313
#03015:00000000000013000000131300000000
#0301b:00000000000000001313000000000000
#03018:00000000000000130000000013130000
#03016:14
#0301a:00000024000000000000000000000000
#04318:00120012000000000000000000120012
#04316:0000000000000012
#0431a:00000000000012000012000000000000
#04314:0012
#04317:00000000000000120000000000000000
#04312:00000000001200000000002200000000
#04315:0012120000000000
#0431b:12
#0431c:00000000000000000000002200000000
#0441a:00000000120012120000000000120000
#0441c:00000000000000000012000000000000
#04416:00000000000000001200121200000000
#04414:00000000001200000000000000000012
#04418:00120000000000000000000000000000
#04412:12001212000000000000000000000000
#04417:0000000000000012
#05715:00130029000013000013002900001300
#05718:00001300001300000000130000130000
#0571a:00000000000000000000000000000014
#05712:00000000000000290000000000000000
#05615:00130000000013000013000000001300
#05618:00001300001300000000130000130000
#0561b:00000013000000000000001300000000
#05612:00000000000000130000000000000029
#05512:29131900000000000000002300000013
#05515:00000000261319002600000000001300
#05518:00000013000000000023000000130000
#0551b:00000000000000130000002300000000
#05315:00001300001600001300000000000013
#05318:00130000130000160013000000001300
#0531b:13000000000013000000002300130000
#05312:00000016000000000000002300000000
#05215:00000000000000000000000000130013
#05218:0000000000000013
#05217:00130000000000000013000000000000
#0521b:00000013001300000000001300000000
#05216:00000000001300000000000000000000
#05212:00130000000000130013000000000000
#05214:0033000000330000
#05219:0000003300000000
#05116:00000000000000000000000000130000
#05112:13190000000000000000002300000013
#0511b:00000000000013130000002300130000
#05115:00000016131900002326000000000000
#05118:0013000000000000
#05119:0000000000000033
#05012:00000000001913130000002300130000
#05018:00000000130000002300000000000013
#05015:00191316000000000026000000001300
#0501b:13000000000000000000002300000000
#0501f:21
#05010:0041
#04915:00000000000000000000000000000013
#04918:0000000000000013
#0491b:00000000000000000000000000130000
#04715:00001300001300230000130000130000
#04718:00130023000013000013002300001300
#04712:00000023000000000000002300000000
#0471b:00000000000000230000000000000023
#04615:00000000000000000000000000130023
#04618:00120000000000000000000000001300
#04613:00000000000000000000121200000000
#04617:00000000001200000012000000000000
#0461b:00000000000012120000000000000023
#04614:00001212000000000000000000000000
#04214:00000000000000000000000000001212
#04217:00000000001200000012000000120000
#0421b:00000000000000000000121200000000
#04213:00000000000012120000000000000000
#0421a:00001212000000000000000000000000
#04216:00120000000000000000000000000000
#04114:00001200000012000000000000001212
#04118:00000000000000000000000000120000
#04117:00120000000000000000001200000000
#0411c:00000000000000000000001200000000
#04112:12000000000000001212000000000000
#04119:00000012000000120000000000000000
#0411b:00000000001200000000000000000000
#04116:00120000
#04019:00000000000000000000000000000012
#04017:00120000000000000000001200001200
#04015:00000012000000120000000000120000
#04012:00000000000000000000001200000000
#0401c:12000000000000001212000000000000
#0401a:0012001200000000
#04013:00000000001200000000000000000000
#04018:00120000
#0401f:11
#03912:0000120000000012
#0391b:00000000000000120000000000000000
#03918:0000001200000000
#03915:00000000001200000000000000000000
#03919:00120012000000000000000000000000
#03916:0012000000000000
#0391c:22
#03812:00000000120000000000000000000012
#03815:0000000000000012
#0381c:00000000000012000000000000120000
#03819:0000000022121200
#03816:00120012000012000012001200000000
#0381a:0012000000000000
#03718:00120012000000120012000012000012
#03715:0000000000120012
#0371b:00000000000000000000001200120000
#03716:0000001200000000
#0371c:22001200121200000000000000000000
#03712:0022
#03710:0041
#03616:00000000000000000012001200000012
#03618:00130000000000130000000000001200
#03612:00000013000000002200120012120000
#03615:0013001300000000
#0361b:00000000001300000000000000000000
#03315:00000000001300130013000000000000
#03318:2300001300130000
#0331a:00000000000000000000000000000014
#03312:00230000000000001300000014001400
#03316:00000000000000000000000000140000
#0331b:00230000000000000000001300000000
#03215:00130000000013000000000000000013
#03218:00001300000000130000000000001300
#03212:00000000001300000000000000130000
#03217:00000013
#03214:00000000000000000000001300000000
#03219:0000000000130000
#03216:00000000000000000013000000000000
#0321b:00000013000000001300000000000000
#0311a:00000024000000000000000000000013
#03117:0000000000000013
#03114:00000000000000000000000000130000
#03119:00000000000000000000001300000000
#03116:0000000000130000
#03113:00000000000000000013000000000000
#03118:13000000000000130000000000000000
#03115:00130000000013000000000000000000
#03112:00000024001300000000000000000000
#02912:00000000000000160000001300000014
#0291a:0000000000001414
#02916:00000000000000000000000000140000
#02918:13001400150016000013000000000000
#02913:00000000001500000000000000000000
#02914:00000014000000000000000000000000
#02915:00130000000000000000130000000000
#0291b:0013
#02910:0041
#02817:00000000000000121200120012001200
#02815:13161300000000000000000000000000
#02812:00230000
#0281b:00230000
#02515:13161300000000160000130000001300
#02512:00231313
#02517:00000013
#0251b:00231300
#02715:00000000000013002300000000000016
#02712:00000000000000000000001323000000
#02717:0013000000000000
#02716:13
#0271b:00000000130000132300000000000000
#02718:00000000001300000000000023000000
#02415:00160000000000132300000000000016
#02418:13001300000000000000001323000000
#02412:00230023
#0241b:00232300
#02315:00000000001300000000000023000016
#0231b:13000000000000000000001323000000
#02318:0000001323000000
#02316:0013000000000000
#02312:00000000130000132300000000000000
#02217:0000000000000013
#02216:0000130000130000
#02218:0013001300000000
#0221b:13131300
#02212:13000013
#02118:0012001200130013
#0211b:00001313
#02116:00000000001200000000000013000000
#02112:0012000013000000
#0211c:12
#0211a:00120000
#01716:0012001200000000
#01712:12000000120000001200001200001200
#0171c:00001200001200001200000000000000
#01718:00000000000000000000121200000000
#0171a:0000000000000012
#01616:1200001200000012
#01614:00001212000000000000121200000000
#01612:0012
#0161c:00000000000000001200001200001200
#0161a:12000012000012000000000000000000
#01514:00001200000000000000121200000000
#01512:1200000012000012
#01518:00001200000012001200001200001200
#0151c:0000001200000000
#01516:00120000
#0141a:00001212000000000000121200001200
#0141c:0012
#01418:1200001200000000
#01416:00000000000000001200001200001200
#01414:12000012000012000000000000000000
#0131a:00000000000000000000121200000000
#0131c:0000000012000012
#01312:00001200000000001200001200001200
#01315:0000001300000000
#0131b:00130000
#01318:00000000001300000000000000000000
#01310:0041
#00218:00130000001300000000130013000000
#00215:00001300130013000000001300000000
#0021b:13000000000000000013000000002300
#00212:00000013000000130000000000002300
#00116:00130000000000140000000013000014
#0011a:00000000001300000000000000000000
#00117:00000000130000000013000000000000
#00114:00000013000000000000130000000000
#00119:00001300000000000000001300000000
#0011b:13000000000000000000000000130000
#00112:00000000001300001300000000000000
#00113:00000000000000000000000000130000
#00316:00000000130000140013000000000014
#00313:00000000001300000000000000000000
#00319:00000013000000000000130000000000
#00314:00001300000000000000001300000000
#00317:00130000000000000000000013000000
#00312:13000000000000000000000000130000
#0031b:00000000001300001300000000000000
#0031a:00000000000000000000000000130000
#00412:1300000013131313
#00415:00130000001300130000000000000000
#00418:0013131313131313
#0041b:00000013000000000000000000000000
#00419:0000000000000000000000000000000000130013001300130013001300130013
#0041a:00000000000000000013001300130013
#00413:0000000000000000000000000000000000130013001300130013001300130013
#00414:00000000000000000013001300130013
#0051b:0000130000000013
#00519:0000001300000000
#00512:00000000000000001200001200001200
#00517:0013
#00614:12000012000012000000000000000000
#00616:00000000000000001200001200001200
#00617:1300001300000000
#0061b:0013
#00610:0041
#00716:0012000000000000
#00715:00000000001300000000000000000000
#00718:00000000130000001200001200001200
#0071b:0000001300000000
#00712:0000001313000013
#0081a:12000012000012000000000000000000
#0081c:00000000000000001200001200001200
#00816:1300001300000000
#00812:0013
#0091c:00001200000000001200001200001200
#00915:00000000001300000000000000000000
#00912:0000130013000013
#00918:0000001300000000
#0101a:12000012000012000000000000000000
#01018:00000000000000001200001200001200
#01016:1300001300000000
#01012:0013
#01118:00001200001300000000000000000000
#01115:00130000
#01112:0000001300000000
#01116:00000000000000001200001200001200
#0111b:0000001313000013
#01214:12000012000012000000000000000000
#01212:00000000000000001200001200001200
#01217:1300001300000000
#0121b:0013
#01912:1212
#01918:0012001200000000
#0191c:00000000000012001200001200001200
#01916:00000000120000000000121200000000
#01914:0012000000000012
#0181a:0000001200000012
#01818:12000000000000000000121200000000
#0181c:00001212000000001200000000000000
#01816:00000000000000001200001200001200
#01814:12000012000012000000000000000000
#02014:0000001200000012
#02016:12000000000000000000121200000000
#02012:00001212000000001200000000000000
#02018:00000000000000001200001200001200
#0201a:12000012000012000000000000000000
#02010:0041
#02616:0000000013000013
#02617:0000130000131300
#02615:0013001300000000
#02612:13130000
#0261b:13
#0341b:00000000001300000000000000001313
#03418:00000000000013000000131300000000
#03412:00000024000000001313000000000000
#03415:00000000000000130000000013130000
#03416:14
#0341a:00000024000000000000000000000000
#03513:00000000000000000000000000000013
#03516:0000000000000013
#03519:00000000000000000000000000130000
#03514:00000000000000000000001300000000
#03517:0000000000130000
#0351a:00000024000000000013000000000000
#03515:13000000000000130000000000000000
#03518:00130000000013000000000000000000
#0351b:00000000001300000000000000000000
#03512:00000024000000000000000000000000
#04512:00000000000000000012000000000000
#04518:00000000000000001200121200000000
#04514:00000000120012120000000000000000
#0451a:00000000001200000000000000001212
#04516:00120000000000000000000000120000
#0451c:12001212000000000000000000000000
#0581a:1414000000000000
#05812:14003400003400340034000034003400
#05819:00000000001400140014000000000000
#05818:0000000000001414
#05918:14
#05914:0014000000000000
#05913:00000000001400140014000000000000
#05912:0000000000001414
#0591a:00003400003400340034000034003400
#06012:14003400003400340034000034003400
#0601a:00001400001300130013000000000000
#06019:0000000000001313
#06118:13
#06115:0013000000000000
#06114:00000000001300130013000000000000
#06113:0000000000001313
#0611b:00003300003300330033000033003300
#06212:13
#0621b:0013000000000000
#0621a:00000000001200120012000000000000
#06219:0000000000001212
#06215:00003300003300330033000033003300
#06318:12003200003200320032000032003200
#06315:0012000000000000
#06314:00000000001200120012000000000000
#06313:0000000000001212
#06412:12
#0565b:00000043000000000000004300000000
#05652:00000000000000330000000000000039
#05552:00000000000000000000003300000033
#0555b:00000000000000000000004300000000
#0525b:00000043002300000000004300000000
#05252:00230000000000330023000000000000
#05256:00000043000000000000004300000000
#05257:00000000000000330000000000000000
#05152:00000000000000000000001300000033
#05157:00000000000000000000000000000033
#0515b:00000000000000000000001300230000
#0545b:00000000000000000000004300000000
#05452:00000000000000000000003300000000
#0535b:00000000000000000000001300000000
#05352:00000000000000000000001300000000
#0505b:00000000000000000000001300000000
#05052:00000000000000000000001300000000
#0315a:00000014000000000000000000000013
#03152:00000014000000000000000000000000
#03158:00000000000000130000000000000000
#03159:00000000000000000000001300000000
#00252:00000000000000530000000000000000
#00455:00000000000000530000000000000000
#00459:0000000000000000000000000000000000530053005300530053005300530053
#00458:0000000023232323
#0045a:00000000000000000023002300230023
#00452:0000000023232323
#00453:0000000000000000000000000000000000530053005300530053005300530053
#00454:00000000000000000023002300230023
#0215b:00001313
#02152:0023
#02156:00000023
#0225b:13132300
#02252:23000023
#02256:00230000
#0235b:23
#02652:13130000
#02657:00230053
#0265b:23
#02656:0053
#02552:00001313
#02557:00000023
#0255b:0023
#02756:53
#03052:00000014000000000000000000000000
#0305a:00000014000000000000000000000000
#0325b:00000013000000000000000000000000
#03352:00000033000000000000000000000000
#0335b:00000043000000000000000000000000
#03652:00000013000000000000000000000000
#03553:00000000000000000000000000000013
#03554:00000000000000000000001300000000
#03555:00000000000000130000000000000000
#03552:00000014000000000000000000000000
#0355a:00000014000000000000000000000000
#0345a:00000014000000000000000000000000
#03452:00000014000000000000000000000000
#03952:0000000000000052
#04752:00000013000000000000001300000000
#0475b:00000000000000130000000000000000
#0465b:00000000000000000000000000000013
#05752:00000000000000390000000000000000
#05755:00000049000000000000004900000000
#05852:54
#05958:24
#06052:24
#06158:53
#06252:53
#06358:22
#002320:00000000000000130000000000000000
#002360:00000000000000000023000000000000
#004350:00000000000000130000000000000000
#004320:0000000053535353
#004330:0000000000000000000000000000000000530053005300530053005300530053
#004340:00000000000000000053005300530053
#005320:23
#004381:0000000013535353
#004391:0000000000000000000000000000000000530053005300530053005300530053
#0043a1:00000000000000000053005300530053
#005381:23
#021321:0013
#021361:00000033
#022321:3323
#022361:00330000
#0223b0:0013
#022370:00000023
#022321:00000013
#023361:23
#0233b0:13
#023370:00230000
#0253b0:0013
#025370:00000033
#0263b0:3323
#026370:00330000
#026361:0013
#026321:00000023
#026370:00000013
#0273b0:23
#027361:13
#027321:00230000
#030321:00140024000000000000000000000000
#033321:00130023000000000000000000000000
#0333b0:00130023000000000000000000000000
#0343a0:00140024000000000000000000000000
#039360:0000000014240000
#039350:0000000000000000000000000000000000000000000000000000000000000000000000000000000000000000000000000000000000000000000000000000000000540054005400540054005400540054000000000000000000000000000000000000000000000000000000000000000000000000000000000000000000000000
#039370:00000000000000000000000000000000000000000000000000000000000000000054545454545454000000000000000000000000000000000000000000000000
#039320:0000000000000012
#040370:22
#0473b0:00000000000000000000000000000013
#0483b0:0023
#048320:000000000000000000000000000000000000163336343633
#049320:360034003600350036003400360033003600320036003300360000340000360000330000260000000000000000000000
#048381:000000000000000000163636
#0483a1:000000000000000000000000000000000000003400000034
#0483b1:0000000000000033
#049381:360036003600360036003600360000360000260000000000
#0493b1:000033000000000000003300000000000000330000000000000000000000000000330000000000000000000000000000
#0493c1:0032000000000000
#0493a1:000000000000000000000000000034000000000000003400000000340000000000000000000000000000000000000000
#0513b1:00000000000000000000000000130000
#051391:0000000000000033
#051371:00000000000000000000000000000023
#052321:00130000000000000000000000000000
#052341:0033000000000000
#052361:00000023000000000000000000000000
#0523b1:00000000001300000000000000000000
#052391:0000003300000000
#052371:00000000000000230000000000000000
#052321:00000000000000000013000000000000
#052341:0000000000330000
#052361:00000000000000000000002300000000
#057321:00000000000000000000000000000014
#058321:34003400003400340034000034003400
#059341:24
#059380:14
#0593a0:00003400003400340034000034003400
#0603a0:24
#060321:14003400003400340034000034003400
#061351:23
#061380:13
#0613b0:00003300003300330033000033003300
#0623b0:23
#062321:13
#062351:00003300003300330033000033003300
#063361:22
#063380:12003200003200320032000032003200
#0643c0:22
