This file was generated by Ched 2.7.0.0.
#TITLE ""
#ARTIST ""
#DESIGNER ""
#DIFFICULTY 0
#PLAYLEVEL
#SONGID ""
#WAVE ""
#WAVEOFFSET 0
#JACKET ""
#REQUEST "ticks_per_beat 480"
#00002: 4
#BPM01: 120
#00008: 01
#TIL00: ""
#HISPEED 00
#MEASUREHS 00
#0051a:0014
#0061a:0014
#00614:14
#00610:0041
#00714:0014
#00814:0014
#0081a:14
#00918:0014
#01018:0014
#01012:14
#01112:0014
#01212:0014
#01218:14
#02612:14
#02618:00140000
#0211a:0014
#02114:00000014
#0221a:14
#02214:00140000
#02512:0014
#02518:00140014
#02414:00141400
#0231a:0014
#02818:00141400
#02712:0014
#02912:00000014
#0291a:0024
#02910:0041
#03012:0014
#03018:14
#0301a:00000014
#03114:14
#03118:00001414
#03214:14140000
#0321a:0014
#03212:00000014
#0331a:14000014
#03312:0024
#0341a:0014
#03414:14
#03412:00000014
#03518:14
#03514:00001414
#03618:14140000
#03612:0014
#04012:14
#04018:0014
#0401f:11
#04518:14
#04512:0014
#0441a:14
#04414:0014
#04114:14
#0411a:0014
#04214:14
#04218:0014
#04618:14
#04614:0014
#05218:00001414
#05212:14140000
#0511a:00140014
#05114:1414
#05018:00140014
#05012:2414
#0501f:21
#05010:0041
#05614:00001414
#0561a:14140000
#05512:00140014
#05518:1414
#05414:00140014
#0541a:2414
#03714:14
#03712:0014
#03710:0041
#0381a:0014
#03918:14
#0591a:0014
#05818:14
#05819:0034
#06112:0014
#06014:14
#06013:0034
#0621a:14
#06219:0034
#06318:14
#06319:0034
#0471a:24
#04714:0024
#0481a:24
#05718:24240000
#05712:00002424
#01310:0041
#02010:0041
#0235a:0064
#02454:0064
#02752:0054
#02858:0054
#03652:0054
#03754:54
#03752:0054
#0385a:0054
#03958:54
#05858:54
#06054:64
#0625a:54
#06358:24
#03352:0014
#0295a:0014
#05352:0014
#001380:14
#001390:0034
#0023a0:3424
#003340:14
#003330:0034
#004320:3434
#005320:24
#0133a0:0014
#013380:0000000000000034
#014380:34
#0143a0:0000003424000000
#015320:0014
#015340:0000000000000034
#016340:34
#016320:0000003424000000
#017380:0014
#0173a0:0000000000000034
#0183a0:34
#018380:0000003424000000
#019340:0014
#019320:0000000000000034
#020320:34
#020340:0000003424000000
#022380:00001424
#023320:14240000
#0233a0:0014
#024380:24
#024340:0014
#025320:24
#026340:00001424
#0273a0:14240000
#027320:0014
#028340:24
#028380:0014
#0293a0:3424
#036320:0014
#037340:34
#037320:0034
#038340:00240000
#0383a0:0014
#039380:34
#0393a0:0024
#043320:1424
#0483a0:1424
#053320:1434343424000000
#058380:14
#058390:0034
#0593a0:24
#060340:14
#060330:0034
#061320:24
#0623a0:14
#062390:0034
#063380:34
#063390:0034
#0643a0:24
