This file was generated by Ched 2.7.0.0.
#TITLE ""
#ARTIST ""
#DESIGNER ""
#DIFFICULTY 0
#PLAYLEVEL
#SONGID ""
#WAVE ""
#WAVEOFFSET 0
#JACKET ""
#REQUEST "ticks_per_beat 480"
#00002: 4
#BPM01: 198
#00008: 01
#TIL00: ""
#HISPEED 00
#MEASUREHS 00
#0001a:14
#00114:14
#00218:14
#00312:14
#0041a:14
#00514:14
#00812:14
#00810:41
#00918:14
#01014:14
#0111a:14
#01212:14
#01318:14
#0161a:14
#01714:14
#01818:14
#01810:41
#01912:14
#0201a:14
#02114:14
#02412:14
#02518:14
#02612:14
#0271a:14
#02814:14
#02810:41
#0291a:14
#0321a:14
#0321f:11
#03314:14
#0341a:14
#03512:14
#03618:14
#03712:14
#04018:0016
#04012:26
#0401f:21
#04212:0016
#04218:16
#04418:0016
#04412:26
#04518:0016
#04512:26
#04618:0016
#04612:26
#04812:0016
#04818:26
#05018:0016
#05012:16
#05212:0016
#05218:26
#05312:0016
#05318:26
#05412:0016
#05418:26
#05612:2616
#05610:41
#05818:1616
#06012:2616
#06118:2616
#06212:2616
#06418:2616
#06612:1616
#06610:41
#06818:2616
#06912:2616
#07018:2616
#06312:0016
#06318:26
#07118:0016
#07112:26
#07212:14
#07318:14
#07414:14
#0751a:14
#07612:14
#07718:14
#07814:14
#0791a:14
#00619:24
#00613:0024
#00719:24
#08012:24
#04110:41
#014340:14
#015340:24
#022380:14
#023380:24
#030340:14
#031340:24
#038380:14
#039380:24
#041320:1626
#043380:1626
#047320:1626
#049380:1626
#051320:1626
#055380:1626
#057320:1626
#059380:1626
#065380:1626
#067320:1626
