This file was generated by Ched 2.7.0.0.
#TITLE ""
#ARTIST ""
#DESIGNER ""
#DIFFICULTY 0
#PLAYLEVEL
#SONGID ""
#WAVE ""
#WAVEOFFSET 0
#JACKET ""
#REQUEST "ticks_per_beat 480"
#00002: 4
#BPM01: 198
#00008: 01
#TIL00: ""
#HISPEED 00
#MEASUREHS 00
#0011b:130000000013000000000000
#00119:000013
#00114:00000013
#00117:000000000000000000000013
#00116:130000000013000000000000
#00817:000000000013000000000013
#00812:000000000000130000000013
#00816:000013
#0081b:13000013
#00810:41
#0091b:001300000000
#00916:0000130000000013
#00919:000000000013000000000000
#00914:0013
#00917:000013
#00912:00000013
#0101b:130000000000130000000013
#01016:000000000013000000000013
#01017:000013
#01012:00000013
#01217:000000000013000000000000
#0121b:00000013
#01212:13
#01216:00000013
#01317:130000000013000000000000
#0131b:00130000
#01318:000013
#01315:000000000000000000130013
#01312:13
#01316:00130000
#01418:13
#01417:000000000013000000000000
#01412:0013
#0141b:000000000000000000000013
#0151a:00130000
#01519:0013
#01518:00000023
#01512:00333300
#01616:000000000013000000130000
#0161b:000000131300
#01618:000000000000000000000013
#01715:130013
#01717:001300130000
#01712:000000130013000000000000
#01718:00000013
#01716:000000000000000000000013
#0181b:13
#01817:000000000013000000130000
#01812:000000131300
#01815:000000000000000000000013
#01810:41
#0201b:000000000013000000000013
#02016:0013
#02012:130013
#02017:00000013
#02116:1313
#02112:001300001300
#02117:00130013
#0211b:000000000013000000000013
#02317:001300000000
#02312:00130013
#0231b:000000000013000000000000
#0241b:130000000000000000133333
#02416:13
#02412:000000000000133333000000
#02417:000000000013000000000000
#02514:0013
#02517:000013
#02512:133333000000000000130000
#02515:001300
#0251a:000000000013000000000000
#02516:000000000000000000000013
#0251b:00130000
#0261b:130000000000133333000000
#02616:000000000013000000000000
#02612:000000000000000000133333
#0281b:000000000013000000000000
#02816:0013
#02817:00000013
#02812:13000013
#02810:41
#02917:00130013
#0291b:130000000000130000000013
#02916:1313
#02912:00130013
#0301b:130000000013230000000013
#03012:00130013
#03016:1313
#03217:000000000013000000130000
#03212:000000131300
#0321f:11
#0321b:000000000000000000003333
#03616:000000000013000000000000
#03612:00000013
#0361b:13
#03716:130000000013000000000000
#03712:00130013
#03717:000000130000000013000000
#0371b:000000000000000000000013
#0391b:00130000
#03912:130000000013000000000000
#03917:0013
#03916:00130000
#04015:00130000
#0401b:230000000013000000000000
#04016:0013
#04019:000013
#04018:001300000000
#04014:00000013
#04017:000000000000000000000013
#04012:23
#0401f:21
#04112:130013
#0411b:000000000013000000000000
#04116:000000000000130000000013
#04117:00000013
#04110:41
#04218:001300000000
#04215:00130000
#04217:000000000013000000000000
#04212:0013
#04219:000013
#04214:00000013
#0421b:000000000000000000000013
#04316:130013
#04317:000000000013000000000000
#04312:000000000000130000000013
#0431b:00000013
#04418:001300000000
#0441b:0013
#04417:00000013
#04415:000000230000000000000013
#0461b:130000000013000000000013
#04616:0013
#04617:000000130000000013000000
#04612:00000013
#04716:13
#04717:000000000013000000000013
#0471b:00000013
#05712:000000000013000000000013
#05717:0013
#0571b:130013
#05716:00000013
#06215:000000000013000000130013
#06218:000000131300
#0621b:00130000
#06212:0013000000000000
#06216:13
#06318:13
#06316:000000000013000000000013
#0631b:0013
#06312:000013
#06317:00000013
#06512:000000000014000000000000
#06516:130000000000140014000014
#0651a:00000014
#0671a:000000000014000000000014
#06716:000000141400
#06712:000000000000000000140014
#06717:13
#0681b:001300130000
#06816:000000230013000000000000
#06812:000000000000000000130013
#06917:231300000000
#06912:00130000
#0691b:000000131300
#06916:000000000000000000230013
#0701b:13
#07012:000000130000000013000000
#07016:0013
#0711b:1313
#07117:000013000000000000130000
#07112:0013
#07317:000000000013000000130000
#07312:000000000013000013000000
#07316:000000000000000000000013
#0731b:13130000
#0741b:13000013
#07417:000000000000130000000013
#07412:0013
#07416:13
#07515:001300000000
#07518:00130000
#07516:000000000013000014000000
#07512:000000000000000000000014
#0751a:00000014
#0001b:13000013
#00012:00131300
#00317:000013000013000000000000
#0031b:000000000000000013000013
#0021b:000000000000130000000013
#00212:13
#00216:0013
#00512:130000000013000000000000
#00514:000013
#00519:00000013
#00516:000000000000000000000013
#00517:130000000013000000000000
#00412:13000013
#0041b:00131300
#00712:0013
#00715:23
#01112:001300000000
#01117:0000130000000013
#01114:000000000013000000000000
#01119:0013
#01116:000013
#0111b:00000013
#01918:130013
#01916:001300130000
#0191b:000000130013000000000000
#01915:00000013
#01917:000000000000000000000013
#02719:0013
#02716:000013
#0271b:133333000000000000130000
#02718:001300
#02713:000000000013000000000000
#02717:000000000000000000000013
#02712:00130000
#0311b:23000013
#03116:23
#03118:00230000
#03115:0023
#03112:00000023
#03316:1313
#03317:00130013
#03319:000000000000001300000000
#03314:000013
#03312:003333000000000000000000
#0331b:000000003333000000000000
#03416:000000000013000000130000
#0341b:000000131300
#03412:130000000000000000003333
#04512:00130000
#04516:0013
#04518:230013
#04515:00000023
#04818:00130000
#04812:000000000013000000000000
#04817:0013
#04814:000013
#04815:001300000000
#04819:00000013
#04816:000000000000000000000013
#0491b:130013
#04912:000000000013000000000000
#04917:000000000000130000000013
#04916:00000013
#05015:001300000000
#05018:00130000
#05016:000000000013000000000000
#0501b:0013
#05014:000013
#05019:00000013
#05012:000000000000000000000013
#05117:130013
#05116:000000000013000000000000
#0511b:000000000000130000000013
#05112:00000013
#05215:001300000000
#05212:0013
#05216:00000013
#05218:000000230000000000000013
#05412:130000000013000000000000
#05416:00130000
#05415:000013
#05418:00000013
#0541b:000000000000000000000013
#05417:0023
#0531b:00130000
#05317:0013
#05315:230013
#05318:00000023
#05518:000013000000000000130000
#05515:000000130000000013000000
#05512:000000000013000000000000
#0551b:000000000000000000000013
#05516:23
#05517:0023
#05617:00130013
#0561b:0013
#05612:003300003300
#05616:000000000033000000000033
#05610:41
#05816:00130013
#05812:0013
#0581b:003300003300
#05817:000000000033000000000033
#05912:130013
#0591b:000000000013000000000013
#05916:0013
#05917:00000013
#06016:130000000000130000000013
#06017:001300000000
#0601b:000000000013000000130000
#06012:0000230000130000
#06112:000013000000130000230000
#0611b:230000000000000000130000000000000000000000001300
#06117:000000130000000013000000
#06412:00130013
#06416:0013
#06417:003300003300
#0641b:000000000033000000000033
#0661b:00130013
#06617:0013
#06616:003300003300
#06612:000000000033000000000033
#06610:41
#07212:0013
#07716:000000000013000000130000
#07712:130000130000000000000024
#0771b:000000000013000013000000
#0761b:0013
#03517:1313
#03516:00130013
#03514:000000000000001300000000
#03519:000013
#0351b:003333000000000000000000
#03512:000000003333000000000000
#0061b:23
#00618:0023
#0221b:23000023
#02217:000000000023000000000000
#07916:24
#07917:0023
#07912:0023
#07816:2424
#07812:000000000024000000000024
#0801b:23
#0005b:53
#00052:0063
#00156:53
#0015b:53
#00252:13
#00452:63
#0045b:0053
#00557:63
#00552:63
#00752:0053
#00852:000000000000000000000053
#00856:13
#00952:00000053
#00956:0000000000000023
#0115b:00000063
#01157:0000000000000023
#0105b:000000000000000000000063
#01052:33
#0125b:43
#01256:00000053
#01352:530000000013000000000000
#01356:00530000
#0235b:000000000053000000000000
#03257:00000053
#03356:53
#03357:00530053
#02452:0053
#0245b:00000053
#02552:53
#0265b:1353
#02652:00000053
#0275b:53
#0345b:13
#03456:00000063
#03757:00530000
#0375b:000000000013000000000000
#03752:00000053
#03957:0053
#04052:13
#0405b:13
#04152:53
#04157:00000053
#04156:000000000000000000000013
#04356:53
#0435b:00000053
#04352:000000000000000000000013
#04756:53
#0495b:63
#04956:00000063
#04957:000000000000000000000013
#05157:63
#05152:00000063
#0515b:000000000000000000000013
#0575b:13
#05952:13
#06056:0053
#06052:0000000000230000
#0615b:0000002300000000
#06157:00630000
#06252:0023000000000000
#06256:53
#06358:53
#06556:13
#06757:13
#0685b:0053
#06952:00630000
#0705b:53
#07052:00130000
#0715b:0053
#07157:00000023
#0725b:43
#07558:00630000
#03557:63
#03556:00630063
#03652:13
#0185b:13
#02052:13
#02852:13
#0785a:001400001400
#0795a:001400000000
#07952:0053
#0003b0:13
#000370:00230000
#000320:0013
#000360:00000023
#001360:13
#001320:00230000
#0013b1:13
#001371:00230000
#002321:00000013
#002361:000000000000000000000023
#003321:000000130023000000000000
#003361:000000000000000000130023
#004321:13
#004361:00230000
#0043b1:0013
#004371:00000023
#005371:13
#0053b1:00230000
#005320:13
#005360:00230000
#007320:0013
#008360:23
#008320:000000000000000000000013
#009360:002300000000
#009320:00000013
#009360:0000000000000053
#010320:23
#0103b0:000000000000000000000013
#011370:002300000000
#0113b0:00000013
#011370:0000000000000053
#0123b0:23
#012320:000000000013000000000000
#012360:00000033
#013320:330000000023000000000000
#013360:00330000
#015360:13
#015320:00333323
#022360:13000023
#022320:000000000033000000000000
#0233b0:000000000013000000000000
#023370:00000023
#024320:000000000000133333000000
#024360:00000023
#0243b1:000000000000000000133333
#025371:23
#025320:133333000000000000000000
#025360:00230000
#0263b0:000000000000133333000000
#026370:00000023
#026321:000000000000000000133333
#027361:23
#0273b0:133333000000000000000000
#027370:00230000
#032370:00000013
#0323b0:000000000000000000003333
#0333b0:23
#033361:13
#033321:003333230000000000000000
#033370:00130000
#0333b0:000000003333230000000000
#033370:00000013
#0343b0:23
#034360:00000013
#034320:000000000000000000003333
#035320:23
#035371:13
#0353b1:003333230000000000000000
#035360:00130000
#035320:000000003333230000000000
#035360:00000013
#036320:23
#0363b0:0013
#036370:00000033
#0373b0:330000000023000000000000
#037370:00330000
#037320:00000013
#037360:000000000000000000000023
#038360:13
#038320:003333230000000000000000
#038371:00130000
#0383b1:000000003333230000000000
#038320:0013
#038360:000000000000003333230000
#0383b1:00000013
#038371:000000000000000000003333
#039371:23
#039371:0013
#0403b1:23
#041321:13
#041361:000000000023000000000000
#041371:00000013
#0413b1:000000000000000000000023
#043361:13
#043321:000000000023000000000000
#0433b1:00000013
#043371:000000000000000000000023
#044361:0013
#044321:00000023
#045371:00130000
#0453b1:0023
#046361:13
#046321:00230000
#047361:13
#047321:000000000023000000000000
#047321:000000000000130000000023
#047361:00000033
#0493b1:13
#049371:000000000023000000000000
#049361:00000013
#049321:000000000000000000000023
#051371:13
#0513b1:000000000023000000000000
#051321:00000013
#051361:000000000000000000000023
#052371:0013
#0523b1:00000023
#053361:00130000
#053321:0023
#054371:13
#0543b1:00230000
#056361:130000000033330000000033
#056321:000033330000000033330000
#057361:23
#058371:130000000033330000000033
#0583b1:000033330000000033330000
#059371:23
#060361:00001323
#060321:0000000000530000
#061371:00132300
#0613b1:0000005300000000
#062361:13230000
#062321:0053000000000000
#063381:13
#0633b1:000000000023000000000000
#0643b1:130000000033330000000033
#064371:000033330000000033330000
#0653b1:23
#066321:130000000033330000000033
#066361:000033330000000033330000
#067321:23
#0683b1:0013
#068371:00000023
#069321:00130000
#069361:0023
#0703b1:13
#070371:00230000
#0703b1:0013
#070371:000023
#071361:13
#071321:002300000000
#0713b1:0013
#071371:00000053
#0723b1:23
#072360:14240000
#072360:00001424
#073360:14240000
#074360:00000013
#074320:000000000000000000000023
#075380:00130000
#0753b0:000000000023000000000000
#076360:14240000
#076360:00001424
#077360:14240000
#078360:14
#0783a0:002400000000
#078360:0014
#0783a0:000024
#079360:14
#0793a0:002400000000
#079320:0013
#080360:23
