This file was generated by Ched 2.7.0.0.
#TITLE ""
#ARTIST ""
#DESIGNER ""
#DIFFICULTY 0
#PLAYLEVEL
#SONGID ""
#WAVE ""
#WAVEOFFSET 0
#JACKET ""
#REQUEST "ticks_per_beat 480"
#00002: 4
#BPM01: 198
#00008: 01
#TIL00: ""
#HISPEED 00
#MEASUREHS 00
#00118:000000000000000013000013
#00115:000000000013000000130000
#0011b:13
#00818:000000000013000013000013
#00815:00001313
#00810:41
#01315:000000000000000013000013
#01318:00000013
#01418:1313
#01412:000000000013000000000000
#01415:000000000000000000000013
#02318:001300000000
#02315:00130000
#0231b:000000000013000000000000
#0241b:13
#02412:130000000000133333000000
#02418:000000000013000000000000
#02415:000000000000000000133333
#02518:000000000000000013000013
#02515:000000133333000000130000
#02512:133333000000000000000000
#02615:130000000013000000000000
#0261b:000000000000133333000000
#02618:000000000000000000133333
#02818:130000000013000000000000
#02815:0013
#0281a:00000014
#02810:41
#03715:000000000000000013000013
#03718:00000013
#03918:000000000013000000000000
#03915:00131300
#0401b:00130000
#04018:0013
#04015:00000013
#04012:23
#0401f:21
#04112:13000013
#0411b:000000000013000000000000
#04115:0013
#04118:000013
#04110:41
#04612:0013
#04618:00000013
#04715:13000013
#04718:000000000000000000000013
#0471b:0013
#05712:000000000013000000000000
#05717:0013
#05714:000013
#05719:00000013
#05716:000000000000000000000013
#06218:1313
#06215:00000013
#06212:13
#06312:13
#0631b:0013
#06318:00000013
#06512:000000000013000000000013
#06518:0013
#06515:000013
#0651b:00000013
#06815:001300130000
#0681b:0013
#06818:000000230000000000000013
#0001b:13
#00012:0013
#00312:000000000013000000000000
#00315:000013000000000000130000
#00318:000000130000000013000000
#0031b:000000000000000000000013
#00218:000000000000000000000013
#0021b:0013
#00212:13
#00215:00000013
#00712:0013
#0071a:24
#02916:1414
#02912:000000140000000000000013
#0291a:00000014
#04818:00130000
#04812:0013
#04815:000013000000000000130000
#04918:1313
#04912:000000000013000000000000
#04915:000013
#0491b:00000013
#05418:000000000000230000000013
#05412:0023
#05518:001300001300
#05515:23000013
#0551b:000000000000000000000013
#05512:0023
#0711b:0013
#07118:14
#07114:001400000000
#07112:0013
#00515:000000000000000013000013
#00518:000000000013000000130000
#00512:13
#00412:13
#0041b:0013
#0091b:001300
#00918:000033330033330033000000
#01015:130000000013000013000013
#01018:00001313
#01112:001300
#01115:000033330033330033000000
#01218:13
#02715:000000000000000013000013
#02718:000000133333000000130000
#0271b:133333000000000000000000
#03017:13
#03014:000000000013000000000000
#03016:000000000000000000000013
#03019:0023
#03215:000000000000133333000000
#03212:000000000000000000133333
#03218:000000000013000000000000
#0321f:11
#03315:133333000000000000000000
#03312:000000133333000000000000
#03318:00000013
#03412:13
#03418:000000000000133333000000
#0341b:000000000000000000133333
#03415:000000000013000000000000
#03518:133333000000000000000000
#0351b:000000133333000000000000
#03515:00000013
#0361b:13
#03615:000000000013000000000000
#04212:00130000
#04215:0013
#04218:000013000000000000130000
#0431b:13000013
#04312:000000000013000000000000
#04318:0013
#04315:000013
#05018:00130013
#05012:0013
#05015:001300000000
#05115:1313
#0511b:000000000013000000000000
#05118:000013
#05112:00000013
#0591b:000000000013000000000000
#05916:0013
#05919:000013
#05914:00000013
#05917:000000000000000000000013
#06012:1313
#06018:0013
#0601b:00230000
#06015:00230000
#0611b:00130023
#06115:00130023
#06112:23
#06118:23
#0671b:000000000013000000000013
#06715:0013
#06718:000013
#06712:00000013
#06918:00130023
#06912:00130000
#06915:230013
#07015:13
#0701b:13
#07018:0014
#07014:000014
#07315:000000000000000013000013
#07318:000000000013000000130000
#07312:13
#0721b:0013
#0741b:13
#07415:000000000000000000000013
#07412:0013
#07418:00000013
#0751b:000000000013000000000000
#07518:000013000000000000130000
#07515:000000130000000013000000
#07512:000000000000000000000013
#0761b:13
#07612:0013
#07718:000013
#07715:000000000013000000130000
#0771b:13
#0771a:000000000000000000000024
#0061a:2424
#0221a:000000000024000000000000
#02214:00000024
#0311b:23
#03115:00230000
#03118:0023
#03112:00000023
#04415:00230000
#07814:2424
#0781a:000000000024000000000024
#04518:23
#04515:00000023
#05218:00230000
#05315:23
#05318:00000023
#07914:24
#07918:0023
#01517:00333300
#01615:000033
#01612:000000000000000000000033
#01715:003300003300
#01712:000000000033000000000033
#01818:000033
#0181b:000000000000000000000033
#01810:41
#01918:003300003300
#0191b:000000000033000000000033
#02012:000033
#02015:000000000000000000000033
#02112:003300003300
#02115:000000000033000000000033
#05610:41
#06610:41
#0005b:53
#00052:0063
#0015b:53
#00752:0053
#00855:13
#00858:000000000000000000000053
#0235b:000000000053000000000000
#02452:0053
#02455:00000063
#0375b:000000000013000000000000
#03955:0063
#04052:13
#04152:53000053
#04155:000000000000000000000013
#04755:53
#04958:630000000000000000000013
#0495b:00000053
#06352:53
#06855:0053
#0685b:0053
#0715b:0053
#07152:0063
#02655:13
#0265b:0063
#02658:00000053
#07852:001400001400
#07854:5454
#00452:63
#0045b:0053
#00552:63
#0095b:002300
#01055:130000000000000000000063
#01152:002300
#01258:13
#01852:13
#0205b:13
#02552:53
#02555:00630000
#02858:13
#0275b:63
#02758:00530000
#03255:0063
#03252:00000053
#03355:63
#03352:00530000
#03452:13
#03458:0053
#0345b:00000063
#03558:53
#0355b:00630000
#0365b:13
#0435b:63000063
#04358:000000000000000000000013
#05155:530000000000000000000013
#05152:00000063
#06058:0053
#06052:0053
#0615b:00630000
#06155:00630000
#06252:53
#06258:53
#06958:00630000
#06952:00630000
#07055:53
#0705b:53
#07258:13
#07255:13
#0725b:0053
#07352:63
#0765b:53
#07652:0063
#0775b:53
#07954:54
#07952:001400000000
#07958:0053
#00252:13
#0135b:000000000013000000000000
#05752:13
#0595b:13
#06555:13
#06758:13
#0003b0:13
#000380:00230000
#000320:0013
#000350:00000023
#0013b0:13
#001380:00230000
#004320:13
#004350:00230000
#0043b0:0013
#004380:00000023
#005320:13
#005350:00230000
#007320:0013
#008350:23
#008380:000000000000000000000013
#009380:000033330033330033230000
#0093b0:005300
#010350:000000000000000000000013
#011350:000033330033330033230000
#011320:005300
#012380:001300
#0123b0:00000033
#013380:33
#0133b0:000000330023000000000000
#0153b0:13
#015370:00333323
#016320:000000000013330000000033
#016350:000000000000000033330000
#017320:330000000033330000000033
#017350:000033330000000033330000
#018320:23
#0183b0:000000000013330000000033
#018380:000000000000000033330000
#0193b0:330000000033330000000033
#019380:000033330000000033330000
#0203b0:23
#020350:000000000013330000000033
#020320:000000000000000033330000
#021350:330000000033330000000033
#021320:000033330000000033330000
#022350:23
#0233b0:000000000013000000000000
#023380:00000023
#024320:000000000000133333000000
#024350:000000000000000000333333
#025320:333333000000230000000000
#025350:000000333333000000000000
#0263b0:000000000000133333000000
#026380:000000000000000000333333
#0273b0:333333000000230000000000
#027380:000000333333000000000000
#032350:000000000000133333000000
#032320:000000000000000000333333
#033350:333333000000230000000000
#033320:000000333333000000000000
#034380:000000000000133333000000
#0343b0:000000000000000000333333
#035380:333333000000230000000000
#0353b0:000000333333000000000000
#0363b0:0013
#036380:00000033
#0373b0:330000000023000000000000
#037380:00330000
#038380:1333
#038390:003300000033003300000033
#0383a0:003333003333
#0383b0:00330033
#039380:23
#039350:0013
#040320:23
#041320:13
#041350:00230000
#041320:00000013
#041350:000000000000000000000023
#0433b0:13
#043380:00230000
#0433b0:00000013
#043380:000000000000000000000023
#044320:0013
#044350:00000023
#044381:0013
#0443b1:00000023
#0453b1:00130000
#045381:0023
#045350:00130000
#045320:0023
#046320:13
#046350:00230000
#046381:13
#0463b1:00230000
#047351:13
#047321:00230000
#049381:13
#0493b1:00230000
#0493b1:00000013
#049381:000000000000000000000023
#051351:13
#051321:00230000
#051321:00000013
#051351:000000000000000000000023
#0523b1:0013
#052381:00000023
#052350:0013
#052320:00000023
#053320:00130000
#053350:0023
#053381:00130000
#0533b1:0023
#0543b1:13
#054381:00230000
#054350:13
#054320:00230000
#054380:0013
#0543b0:00000023
#054321:0013
#054351:00000023
#056321:1333
#056351:00330033
#057321:23
#0583b1:1333
#058381:00330033
#0593b1:23
#060321:0013
#060351:00000023
#060380:0013
#0603b0:00000023
#0613b0:00130000
#061380:0023
#061351:00130000
#061321:0023
#062321:13
#062351:00230000
#062380:13
#0623b0:00230000
#063320:13
#063350:00230000
#064350:1333
#064320:00330033
#065350:23
#066380:1333
#0663b0:00330033
#067380:23
#068350:0013
#068320:00000023
#0683b1:0013
#068381:00000023
#069381:00130000
#0693b1:0023
#069320:00130000
#069350:0023
#070350:13
#070320:00230000
#0703b1:13
#070381:00230000
#0713b1:0013
#072381:23
#071320:0013
#072350:23
#0723b0:0013
#072380:00000023
#073320:13
#073350:00230000
#0763b0:13
#076380:00230000
#076320:0013
#076350:00000023
#0773b0:13
#077380:00230000
#078340:14
#078320:002400000000
#078340:0014
#078320:000024
#079340:14
#079320:002400000000
#079380:0013
#0803b0:23
