This file was generated by Ched 2.7.0.0.
#TITLE ""
#ARTIST ""
#DESIGNER ""
#DIFFICULTY 0
#PLAYLEVEL
#SONGID ""
#WAVE ""
#WAVEOFFSET 0
#JACKET ""
#REQUEST "ticks_per_beat 480"
#00002: 4
#BPM01: 198
#00008: 01
#TIL00: ""
#HISPEED 00
#MEASUREHS 00
#00117:130000130013000000130000
#0011b:000000130000000013000000
#0011a:000000000000000000000013
#00112:000000000013000000000000
#00817:000000000013000000000000
#00812:0015
#00816:130000150000000015000000
#0081b:000013000000000000130000
#00815:000000000000000000000015
#00810:41
#00916:00130000
#00914:0013
#00912:13000013
#0091b:000000000000000000000013
#0101b:13
#01016:000000000013000000000015
#01019:0015
#01015:000000150000000015000000
#01012:000013000000000000130000
#01217:000000000013000000000000
#0121b:000013000000000000130000
#01212:1313
#01216:00130000
#01312:130000000013000000000000
#0131b:00130013
#01317:000000000013000000000000
#01315:000016
#01415:131600001600
#01418:0013
#01412:00130000
#0141b:00000013
#0151b:00130000
#01519:0013
#01515:13
#01516:00130000
#01514:0013
#01517:00000023
#01512:00000023
#01616:000000000014000000140000
#0161b:0013
#01715:13
#01716:000014000000140000000014
#01712:00130000
#01718:00000013
#01812:1313
#01816:000000000014000000140000
#01810:41
#0211b:000000000000000000000013
#02317:000013130000000000000000
#02312:00130000
#02316:000000000014000000000000
#0231b:000000000013000000130000
#0241b:13
#02416:13
#02515:0013
#02516:000000000000000014140014
#02512:000000001300000000130000
#02518:000000000013000000000000
#0251b:00130000
#0261b:13
#02616:14
#0281b:000000000013000000000000
#02812:13
#02816:14140000
#02817:00000013
#02810:41
#02917:00130013
#0291b:130000000000130000000013
#02912:00000013
#03018:1323
#0301b:000000000013000000000013
#03016:00130013
#03012:1313
#03019:001300001300
#0321b:130000000013000000000000
#03216:1313
#03217:00130000
#03212:00130000
#0321f:11
#03616:000000000013000000000000
#0361b:1313
#03612:00000013
#03717:000013
#0371b:130000000013000000000013
#03712:00130013
#03716:000000000013000000000000
#0391b:00130013
#03912:130000000013000000000000
#03917:0013
#03916:00130000
#03915:00000013
#04015:00130000
#0401b:000000000013000000000000
#04016:0016
#04012:230013
#04018:001300000000
#04014:00000016
#04017:230000000000000000000013
#0401f:21
#04112:13
#0411b:000000130013000000000000
#04116:0016
#04119:000013
#04117:000000000000000000000013
#04114:00000016
#04110:41
#04418:001300000000
#0441b:000000000000130000000013
#04417:00000013
#04416:16
#04412:00290000
#0461b:130000000013000000000013
#04616:000000141400
#04612:00000013
#04617:00130000
#04716:140000000000130000000013
#04712:000000000013000000000000
#0471b:00130013
#04717:000013
#05712:000000000013000000000013
#05714:0016
#05716:000000130000000013000000
#05718:00000016
#0571b:00130000
#06216:000000000013000000000013
#0621a:0014
#06217:000000130000130000000000000000001300000000000000
#06212:13000014
#0631a:14
#06316:000000000015000000000015
#0631b:0013
#06312:000000130000000015000000
#06317:00000013
#06512:000000000013130000000000
#06516:000000000000140013130014
#0651a:00000014
#0651b:00130000
#06515:00130000
#0671a:000000000000000000000014
#0671b:000000000013130000000000
#06716:0014
#06717:000000000000000013130000
#06712:00130014
#06718:00130000
#06816:000014000013000000000014
#0681b:0013
#06812:002c0013
#06917:001300000000
#06912:2c13002c
#0691b:0013
#06916:000000000000000014000013
#0701b:1313
#07012:000000130000000013000000
#07017:0013
#07016:000013
#07112:001300130000
#0711b:13
#07117:1313
#07116:000013000000000000000013
#07118:000013
#07115:00000013
#07317:000000000013000000000000
#07312:130000000013000000000000
#07316:13000014
#0731b:00130000
#0741b:000000000000130000000013
#07416:00130013
#07417:0013
#0741a:14
#07412:00130000
#07515:001300000000
#07516:000000000000000013130000
#07517:000000000000000000000013
#0751b:00000013
#07518:00130000
#0001b:1313
#00012:00130000
#00017:0013000000130000
#00016:13000013
#0031b:000000000013000000000000
#00317:001300000000
#00312:000000000000000000000013
#00316:000013
#0021b:000000000000130000000013
#00212:131300130000
#00216:130000130000000000000013
#00217:00000013
#00517:000000000000000000000013
#00516:130000130013000000130000
#00512:000000130000000013000000
#0051b:000000000013000000000000
#00713:0000000013131313
#00712:24000000000000000013000000130000
#00714:00000000000000000000001300000013
#00716:0013
#03312:000013
#03316:0013
#0331b:000000000000000000000000000013000000000000130000
#03317:00000013
#05518:00000013
#0551b:000000000000000000000013
#05512:000000000013280000000000
#05515:00130000
#05516:28
#0591b:000000000013000000000013
#05916:0016
#05917:000000130000000013000000
#05912:00130016
#06016:161300000000
#0601b:000000000013000000000000
#06017:000000000000000000000000000000130000130000001300
#06012:002c1300
#07212:00001313
#0721b:1300000000130000
#07216:13
#07217:00131300
#03412:130000000013000000000000
#03417:0013
#00412:1313
#0041b:00130000
#00416:0013000000130000
#00417:00000013
#01117:00130000
#01119:0013
#0111b:13000013
#01112:000000000000000000000013
#01918:13
#01916:000014000000140000000014
#0191b:00130000
#01915:00000013
#0201b:13
#02212:130000000013130000230000
#02216:000000000024000000140000
#0221b:23
#02718:0013
#02716:000000000000000014140014
#0271b:000000001300000000130000
#02715:000000000013000000000000
#02712:00130000
#0351b:000013
#03517:0013
#03512:000000000000000000000000000013000000000000130000
#03516:00000013
#04212:1616
#04218:00130016
#04217:000000000013000000000013
#04216:000013
#04215:001300000000
#04312:1316
#04317:000000000013000000000000
#04319:000013
#0431b:000000130000000000000013
#04314:00000016
#04516:00130000
#04512:00001329
#04518:000013
#04515:29
#04812:130000000013000000000000
#04818:00130000
#04814:0016
#0481b:000013
#04815:001300000000
#04816:000000000000000000160013
#0541b:000000130000000000000013
#05418:00000013
#05412:000000000013280000000000
#05416:141400000000
#0491b:13
#04912:000000130013000000000000
#04914:000000161300
#04916:000000000000000000160013
#05215:000013290000000000000000
#05212:000000000000130000000013
#05216:00000013
#05214:16
#05018:161300160000
#05015:00130000
#05016:000000000013000000000013
#05017:000013
#05012:00000016
#0511b:13
#05116:000000000013000000160000
#05118:0016
#05114:000013
#05112:000000130000000000000013
#05317:00130000
#0531b:0013
#05315:000000000000000013290000
#05312:290000000000000000000013
#06112:2c00130000000000002c0000
#06116:000000000000000000130000130000001300000000000000
#0611b:000000130000000000000013
#07716:000000000013000000140000
#0771b:130000000013000000000000
#07717:130000000000000000000023
#07712:000000130000000000000023
#0761b:00001313
#07612:1300000000130000
#07617:13
#07616:00131300
#0061a:24
#00616:0024
#03118:23
#03112:23000024
#0311a:00240000
#03116:0024
#0801a:24
#07916:0024
#07912:2324
#07917:23
#07812:230000000023230000000023
#07817:230000000023230000000023
#05617:003300003300
#05612:000000000033000000000033
#05610:41
#05816:003300003300
#0581b:000000000033000000000033
#06416:003300003300
#0641b:000000000033000000000033
#06617:003300003300
#06612:000000000033000000000033
#06610:41
#0005b:5363
#00057:0023000000230000
#00052:00630000
#00056:00000063
#00252:13
#00256:000000000000000000000063
#00753:0000000053635363
#00752:00000000000000000023000000230000
#00754:00000000000000000000002300000023
#00853:13
#00856:13
#00952:00000053
#01057:33
#02356:000000000054000000000000
#03957:0053
#0395b:00000023
#04057:13
#04052:13
#04152:53
#04157:000000000000000000000013
#04756:54
#06052:0053
#06057:0000000000230000
#0635a:54
#0685b:0053
#06952:00630000
#0705b:53
#07052:00130000
#01852:13
#0265b:13
#07856:001300001300
#0785b:001300001300
#07857:5353
#07852:5353
#07952:5354
#07956:001300000000
#0795b:001300000000
#07957:53
#00452:6353
#0045b:00530000
#00456:0023000000230000
#00457:00000053
#0115b:00000063
#01256:43
#01252:0023
#0125b:00000023
#01352:230000000013000000000000
#0205b:13
#02256:00000054
#02852:13
#03357:00000053
#0335b:0000000000000023
#03457:33
#03556:00000063
#03552:0000000000000023
#03656:43
#03652:00000023
#0365b:0023
#0375b:230000000013000000000000
#04352:63
#0435b:000000000000000000000013
#0495b:63
#04956:000000000000000000000013
#0515b:53
#05152:000000000000000000000013
#05758:13
#05955:13
#06156:0000002300000000
#0615b:00630000
#06257:0023000000000000
#06252:53
#06552:33
#0675b:43
#06752:00000054
#0725b:4300000000230000
#07256:53
#07257:0053
#07352:63
#07555:005300000000
#07558:00530000
#07657:63
#07656:0063
#07652:0000000000230000
#0775b:53
#0003b0:13230000
#000370:0053000000000000
#000321:00130000
#000361:0023
#0003b0:00001323
#000370:0000000000530000
#000361:00000013
#001321:23
#002321:00000013
#002361:000000000000000000000033
#003321:002300000000
#003321:00130000
#003361:000000000000000000000000000000530000000023000000000000000000000000000000000000000000000000000000
#0033b1:00000013
#003371:000000000000000000000000000000000000000000000000000000000000000000000000000000530000000023000000
#004321:13230000
#004361:0053000000000000
#0043b0:00130000
#004370:0023
#004321:00001323
#004361:0000000000530000
#004370:00000013
#0053b0:23
#007330:0000000013535353
#007320:00000000000000000053000000530000
#007340:00000000000000000000005300000053
#008330:23
#009390:000015250000000000000000
#009370:000000000015250000000000
#009350:000000000000000015250000
#009321:00000013
#010371:23
#011321:000015250000000000000000
#011341:000000000015250000000000
#011361:000000000000000015250000
#0113b0:00000013
#012360:23
#012320:0013
#012370:00000023
#0123b1:00000013
#013361:23
#013320:13
#013370:00230000
#013380:000000000000000000000013
#014380:23
#014350:000000000013230000000000
#014380:000000000000000000000013
#015380:23
#0163b0:13230000
#016371:13230000
#016321:000000000000000013230000
#016381:000000000000000000000013
#017381:23
#0173b1:000000000013230000000000
#017351:000000000000000013230000
#0183b1:000000000000000013230000
#018351:000000000000000000000013
#019351:23
#019321:000000000013230000000000
#019381:000000000000000013230000
#0203b1:000000000013230000000000
#020360:000000142400
#0203b1:000000000000000013230000
#020320:000000000000000000130023
#020361:000000000000000000000014
#021361:24
#021320:132300000000
#0213b1:000013230000000000000000
#021360:000000140024000000000000
#0213b1:000000000013230000000000
#021320:000000132300
#021361:000000000000000014240000
#021320:000000000000000000130023
#022360:00000014
#0233a0:24
#023360:000000000014000000000000
#023320:00000024
#024320:000000000013000000000000
#025320:00230000
#024371:0013
#024391:000000000000003300000000
#0243b1:000023
#0243b1:00000013
#024391:000000000033
#024371:000000000000000000000023
#025371:13
#025391:003300000000000000000000
#0253b1:002300000000
#0263b0:000000000013000000000000
#0273b0:00230000
#026361:0013
#026341:000000000000003300000000
#026321:000023
#026321:00000013
#026341:000000000033
#026361:000000000000000000000023
#027361:13
#027341:003300000000000000000000
#027321:002300000000
#028360:0013
#028320:00000033
#029370:33
#029320:00330000
#029360:0023
#032370:000000000000000013330000
#0323b0:000000000000000000000033
#0333b0:330000000033230000000000
#033370:000033330000000000000000
#032321:00000013
#032341:000000000033
#032361:000000000000000000000023
#033361:13
#033341:003300000000000000000000
#033321:002300000000
#033321:00130000
#033341:003300
#033361:000000000023000000000000
#033370:00000013
#0333b0:0000000000000053
#034370:23
#034360:000000000000000013330000
#034320:000000000000000000000033
#035320:330000000033230000000000
#035360:000033330000000000000000
#0343b1:00000013
#034391:000000000033
#034371:000000000000000000000023
#035371:13
#035391:003300000000000000000000
#0353b1:002300000000
#0353b1:00130000
#035391:003300
#035371:000000000023000000000000
#035360:00000013
#035320:0000000000000053
#036360:23
#0363b0:0013
#036360:00000023
#036321:00000013
#037371:23
#0373b0:13
#037360:00230000
#038360:130033230000000000000000
#038320:003300000000000000000000
#0383b1:000000130033230000000000
#038371:003300
#038320:000000000000130033230000
#038360:000000000000003300000000
#038371:000000000000000000130033
#0383b1:000000000033
#039371:23
#039371:0013
#0393b1:00000053
#040371:23
#039320:000000000000000000000013
#040320:23
#041320:13
#041360:00230000
#043320:13
#043360:00230000
#044360:0013
#044320:00000000000000000053000023000000
#0453b0:00130000
#045370:00000000005300002300000000000000
#046360:13
#046320:00530000230000000000000000000000
#047360:14
#047320:00240000
#0493b0:13
#049370:00230000
#0513b0:13
#051370:00230000
#052370:0013
#0523b0:00000000000000000053000023000000
#053320:00130000
#053360:00000000005300002300000000000000
#054350:000000000000000013230000
#055380:000013230000000000000000
#055350:000000000000000013230000
#056320:130000000033330000000033
#056370:000033330000000033330000
#057320:23
#0563b1:001300000000
#0563a1:00230000
#056371:000000000013000000000000
#056381:0023
#0563b1:000013
#0563a1:00000023
#056371:000000000000000000000013
#057381:23
#0583b1:130000000033330000000033
#058361:000033330000000033330000
#0593b1:23
#058320:001300000000
#058330:00230000
#058360:000000000013000000000000
#058350:0023
#058320:000013
#058330:00000023
#058360:000000000000000000000013
#059350:23
#060320:00001323
#060370:0000000000530000
#0613b0:00132300
#061360:0000005300000000
#062320:13230000
#062370:0053000000000000
#0633a0:14
#063360:00240000
#0643b0:130000000033330000000033
#064360:000033330000000033330000
#0653b0:23
#064331:001300000000
#064321:00230000
#064361:000000000013000000000000
#064321:0023
#064331:000013
#064321:00000023
#064361:000000000000000000000013
#065321:23
#066321:130000000033330000000033
#066371:000033330000000033330000
#067321:23
#0663a0:001300000000
#0663b0:00230000
#066370:000000000013000000000000
#0663b0:0023
#0663a0:000013
#0663b0:00000023
#066370:000000000000000000000013
#0673b0:23
#067320:00000014
#067360:000000000000000000000024
#0683b0:0013
#068370:00000023
#069320:00130000
#069360:0023
#0703b0:13
#070370:00230000
#072360:13
#072320:00230000
#072370:00001323
#0723b0:0000000000530000
#073320:13
#073370:00230000
#073320:000000000000000013230000
#073360:000000000000000000000013
#074360:23
#074320:00000013
#074370:000000000000000000000023
#075350:001300000000
#075320:000000000023000000000000
#075381:00130000
#0753b1:000000000023000000000000
#076371:13
#0763b1:00230000
#076361:00001323
#076321:0000000000530000
#0773b1:13
#077361:00230000
#0773b1:000000000000000013230000
#078321:13
#078361:002300000000
#078370:13
#0783b0:002300000000
#078320:0013
#078360:000023
#078371:0013
#0783b1:000023
#079321:13
#079361:002300000000
#079370:13
#0793b0:002300000000
#079320:0014
#080360:24
