This file was generated by Ched 2.7.0.0.
#TITLE ""
#ARTIST ""
#DESIGNER ""
#DIFFICULTY 0
#PLAYLEVEL
#SONGID ""
#WAVE ""
#WAVEOFFSET 0
#JACKET ""
#REQUEST "ticks_per_beat 480"
#00002: 4
#BPM01: 198
#00008: 01
#TIL00: ""
#HISPEED 00
#MEASUREHS 00
#0001a:14
#00014:14
#00018:0014
#00012:0014
#0011a:14
#00114:00140014
#00118:0014
#0021a:14
#00218:0014
#00212:0014
#00312:14
#00318:00140014
#00314:0014
#00412:14
#00414:0014
#0041a:0014
#00512:14
#00518:00140014
#00514:0014
#0081a:14
#00814:00140000
#00818:0014
#00812:00000014
#00810:41
#00918:1414
#00912:00140000
#00914:00000014
#0101a:14
#01012:0014
#01018:00000014
#01114:1414
#0111a:00140000
#01118:00000014
#01212:14
#01218:0014
#01314:14
#0131a:0014
#01612:0014
#01618:00000014
#01714:14
#0171a:00140000
#01712:0014
#01718:00000014
#01814:14000014
#0181a:0014
#01810:41
#01918:14
#01912:00140000
#0191a:0014
#01914:00000014
#02018:14000014
#02012:0014
#02112:14
#0211a:00140014
#02114:0014
#0281a:0014
#02810:41
#02914:14
#02918:0014
#03612:0014
#03718:14
#03714:0014
#0381a:1414
#03819:00140014
#0391a:14
#04014:00140014
#04018:2414
#0401f:21
#0411a:14
#04110:41
#04214:1414
#04218:00140014
#04312:14
#0441a:00140014
#04414:0014
#04512:1414
#04518:00140000
#0451a:00000014
#04614:14
#0461a:00140000
#04612:0014
#04618:00000014
#04712:14
#04714:0014
#04818:00140014
#04814:0014
#04812:24
#04914:14
#05014:00140014
#05018:1414
#05118:14
#05212:00140014
#05218:0014
#0531a:1414
#05314:00140000
#05312:00000014
#05418:14
#05412:00140000
#0541a:0014
#05514:14000024
#05518:0024
#05614:00140014
#05618:2414
#05610:41
#0571a:14
#05818:00140014
#05814:1414
#05912:14
#0601a:00140014
#06014:0014
#06112:1414
#06118:00140000
#0611a:00000014
#06214:14
#0621a:00140000
#06212:0014
#06218:00000014
#06312:14
#06314:0014
#06418:00140014
#06414:0014
#06412:24
#06512:14
#06614:00140014
#06618:1414
#06610:41
#0671a:14
#06812:00140014
#06818:0014
#0691a:1414
#06914:00140000
#06912:00000014
#07018:14
#07012:00140000
#0701a:0014
#07114:14
#07118:0024
#07212:0014
#07218:0014
#0731a:14
#07318:0014
#07314:00140014
#0741a:14
#07412:0014
#07418:0014
#07512:14
#07514:0014
#07518:00140014
#07612:14
#0761a:0014
#07614:0014
#07712:14
#07714:0014
#07718:00140014
#07812:14
#0781a:0014
#07814:0014
#0791a:14
#07918:0014
#07914:00140014
#0321f:11
#00612:24
#0061a:0024
#00712:24
#0801a:24
#04058:14
#0385a:5454
#03859:00540054
#0395a:54
#0415a:54
#04352:64
#04752:54
#04754:0054
#04852:14
#04954:54
#05158:64
#05658:14
#0575a:54
#05952:64
#06352:54
#06354:0054
#06452:14
#06552:64
#0675a:54
#07158:0054
#0725a:14
#014320:14
#014340:0024
#0153a0:14
#015380:0024
#022320:14
#022340:0034
#023320:34
#023340:0034
#024320:24
#0243a0:0014
#026380:24
#026320:0014
#028340:24
#030320:14
#030340:0024
#030381:14
#0303a1:0024
#0313a1:14
#031381:0024
#031340:14
#031320:0024
#032320:0014
#034340:24
#0343a0:0014
#036380:24
#0383a0:1434
#038390:00340034
#0393a0:34
#040380:24
#0413a0:14
#041380:0024
#043320:14
#043340:0024
#047320:14
#047340:0034
#048320:24
#049340:14
#049320:0024
#051380:14
#0513a0:0024
#0573a0:14
#057380:0024
#059320:14
#059340:0024
#063320:14
#063340:0034
#064320:24
#065320:14
#065340:0024
#0673a0:14
#067380:0024
#071380:0014
#0723a0:24
