This file was generated by Ched 2.7.0.0.
#TITLE ""
#ARTIST ""
#DESIGNER ""
#DIFFICULTY 0
#PLAYLEVEL
#SONGID ""
#WAVE ""
#WAVEOFFSET 0
#JACKET ""
#REQUEST "ticks_per_beat 480"
#00002: 4
#BPM01: 160
#00008: 01
#TIL00: ""
#HISPEED 00
#MEASUREHS 00
#0021a:14
#0031a:14
#00414:14
#00514:14
#00618:14
#00610:41
#00718:14
#00812:14
#00912:14
#0101a:14
#01112:14
#01412:14
#01518:14
#0261a:14
#02610:41
#02714:14
#03012:14
#03118:14
#03412:0016
#03418:26
#03410:41
#03518:1616
#03612:16
#03618:0016
#03712:1616
#04018:16
#04012:0016
#04118:16
#04218:0016
#04212:26
#04312:1616
#04418:16
#04412:0016
#04518:1616
#04812:16
#04818:0016
#04912:16
#04918:0016
#05412:14
#0541f:11
#0551a:14
#0581a:14
#05912:14
#06418:16
#06412:0016
#06518:16
#06512:0016
#06818:16
#06812:0016
#06918:16
#06912:0016
#07212:16
#07218:0016
#07312:16
#07318:0016
#07612:16
#07618:0016
#07712:16
#07914:14
#0781a:14
#08212:14
#08318:14
#01614:14
#0171a:14
#01812:14
#01810:41
#0191a:14
#0221a:14
#02314:14
#02418:14
#02512:14
#05014:14
#05114:14
#0521a:14
#0531a:14
#06212:26
#06218:0026
#0621f:21
#06312:26
#06310:41
#07018:26
#07012:0026
#07118:26
#04610:41
#0123a0:14
#0133a0:24
#020320:14
#021320:24
#0283a0:14
#0293a0:24
#032320:14
#033320:24
#038380:1626
#039320:1626
#046320:1626
#047380:1626
#056340:14
#057340:24
#060380:14
#061380:24
#063320:1626
#066380:1626
#067320:1626
#071380:1626
#074320:1626
#075380:1626
#0803a0:14
#0813a0:24
#084320:14
#085320:24
#086380:1400000000000034
#087380:00343424
