This file was generated by Ched 2.7.0.0.
#TITLE ""
#ARTIST ""
#DESIGNER ""
#DIFFICULTY 0
#PLAYLEVEL
#SONGID ""
#WAVE ""
#WAVEOFFSET 0
#JACKET ""
#REQUEST "ticks_per_beat 480"
#00002: 4
#BPM01: 160
#00008: 01
#TIL00: ""
#HISPEED 00
#MEASUREHS 00
#00218:1300001300130000
#00215:00001300000000130000000000001300
#0021b:00130013
#00212:00130013
#0031b:1313000013000000
#00315:00130013000000000013000000001300
#00318:00000000130013000000130000130000
#00312:00000000001300130000000013000000
#00415:0013000000000013
#00412:00000000130000130000000013000000
#0041b:00130013
#00418:2300001300130000
#00618:00001300000000130000000000001300
#00612:00130013
#0061b:00130013
#00615:0000001300130000
#00610:41
#00518:0000131313000000
#00515:00000000001300130000000000000000
#00512:00000013
#00519:24
#00513:0024000000000000
#0051b:00000023
#00818:0013000000000013
#0081b:00000000130000130000000013000000
#00812:00130013
#00815:2300001300130000
#00915:0000131300000000
#00918:00000000001300130000000026000000
#00913:24
#00919:0024000000000000
#00912:0026
#01012:1313
#0101b:0013130000000013
#01015:00130013
#01018:0000000013130000
#01112:13
#01118:0013000000000000
#01115:00000013
#01212:1313
#01215:00130013
#0121b:0013130000130000
#01218:0000000000000013
#0131b:00000013
#01312:1313000000000000
#01415:1313
#01412:00130013
#01418:0013130000000013
#0141b:0000000013130000
#01515:1300000000001313
#0151b:0013000000000000
#01618:1313
#0161b:0000130000001313
#01616:0000000000001313
#01712:0013130000002400
#01717:00130000
#0171a:0024
#0181b:1313
#01812:0013130000000013
#01818:00130013
#01815:0000000013130000
#01810:41
#0191b:13
#01915:0013000000000000
#01918:00000013
#0201b:1313
#02018:00130013
#02012:0013130000130000
#02015:0000000000000013
#02112:00000013
#0211b:1313000000000000
#02218:1313
#0221b:00130013
#02215:0013130000000013
#02212:0000000013130000
#02318:1300000000001313
#02312:0013000000000000
#02415:1313
#02412:0000130000001313
#02417:0000000000001313
#02618:00000013
#02615:0000000000000013
#02612:0013001300000000
#0261a:2424
#02616:00240000
#02610:41
#02515:0000000000000013
#0251b:0013130000000000
#02516:00130000
#02512:0024
#0251a:00000024
#02718:00000013
#0271b:0013001300000013
#02712:2400000024000013
#02716:00240000
#02815:0013000013000000
#02818:0000260000130000
#02812:00000026
#02912:0000001300000013
#02915:0013000000130000
#0291b:13
#02917:00240024
#0291a:0024
#03012:00130000
#03014:0013
#03016:0000000000001313
#0301b:0000000000001313
#03019:0013
#03017:00130000
#0301a:24
#03112:00130013
#0311b:0013
#03117:0000000000000013
#03217:13000013
#0321b:0000001313000000
#03216:00131300
#03212:1300000000000024
#03417:1313
#03416:00130013
#03412:2424
#0341a:00240024
#03410:41
#0351b:13130000
#03518:0013000000000000
#03512:1313
#03517:0013
#03515:00000013000000000000000000000000
#0371b:1313000013000000
#03716:13
#03717:00130000
#03712:0000131300000013
#03715:0000000000130000
#03718:00000013
#03812:0013000013000000
#03815:0000130000130013
#03818:2600001300130000
#0381b:00001313
#03912:1300001300000000
#0391b:13
#03915:0013130013000000
#03918:00131300
#04016:1313
#04017:0000130000001313
#04012:0000000000000013
#0401b:13
#04116:0013000000000000
#0411b:0013000000000000
#04118:0026
#04112:00000026
#04512:1313000013000000
#04517:13
#04516:00130000
#0451b:0000131300000013
#04518:0000000000130000
#04515:00000013
#0461b:0013000013000000
#04618:0000130000130013
#04615:0000001300130000
#04612:26001313
#04610:41
#0471b:1300001300000000
#04712:13
#04718:0013130013000000
#04715:00131300
#04818:13
#0481b:0013000013000023
#04815:13131300
#04812:0000001300000023
#05012:00001300000000130000000000000000
#05015:00130013
#0501b:0000130000001313
#05018:1300001300130000
#0521b:00001300000000130000000000000000
#05218:00130013
#05212:0000130000001313
#05215:1300001300130000
#05318:0000131326000000
#05315:00000000001300130000000000000000
#0531b:0000000000000013
#05319:24
#05313:0024000000000000
#05312:00000026
#05112:1300130000000013
#05115:0013001300000000
#05118:00130000001300000000000000000000
#0511b:00000013000000130000130000000000
#0791b:00000000130013000000130000130000
#07918:1313000013000000
#07912:00130013000000000013000000001300
#07915:00000000001300130000000013000000
#07815:0013001300130013
#07812:00130013
#0781b:00130013
#07818:13000000000000130000000000000000
#08015:0013001300130013
#08012:00130013
#0801b:00000000130000130000000013000000
#08018:23
#0811b:0000130000130000
#08118:0000001313002300
#08112:00000000001300000000000000001300
#08115:00000000000000130000000013000000
#08119:24
#08113:0024000000000000
#08218:0013001300130013
#0821b:00130013
#08212:00130013
#08215:00000000000000130000000000000000
#08418:0013001300130013
#0841b:00130013
#08412:00000000130000130000000013000000
#08415:23
#08512:00132600
#08515:0000001300000000
#0851b:00000000001300000000000000000000
#08518:00000000000000130000000026000000
#08513:24
#08519:0024000000000000
#08612:1600000000000014
#08616:0000000000000014
#08712:00161600
#08718:0000001600000000
#08714:00000028
#0621b:00130013
#06212:1313
#06217:2323
#06216:00230023
#0621f:21
#06417:13000023
#06412:13000023
#06416:00231300
#0641b:00231300
#06315:0013130000000000
#0631b:13
#06318:00000013000000001300000000000000
#06312:1313
#06310:41
#06512:13
#0651b:00130000
#06517:1313
#06519:0013001300000000
#06515:00130000
#0661b:0013001300001300
#06615:00130013
#06612:2600000013130000
#06618:0000000000130000
#06718:13
#06712:0013000013000000
#0671b:00130000
#06716:00130000
#06717:0013
#06816:14141400
#06812:2400000024001313
#0681b:0000000000001313
#0681a:00240000
#06915:0013000000000000
#06918:0013000026000000
#06912:00000026
#07412:0013001300001300
#07418:26130013
#0741b:0000000013130000
#07415:0000000000130000
#07515:13
#0751b:0013000013000000
#07512:00130000
#07517:00130000
#07516:0013
#07616:14141400
#07612:0000240000001323
#0761b:0000000000001323
#0761a:2424
#04216:1313
#04217:00130013
#0421a:2424
#04212:00240024
#00712:1313000013000000
#00718:00130013000000000013000000001300
#00715:00000000130013000000130000130000
#0071b:00000000001300130000000013000000
#05415:00000013
#05418:0000000000000013
#0541b:0013001300000000
#0541f:11
#05412:2424
#05416:00240000
#05515:00000013
#05512:0013001300000013
#0551b:0000000000000013
#0551a:2424
#05516:00240000
#05618:0013000013002600
#05615:0000000000130000
#05612:00260000
#0571b:0000001300000013
#05718:0013000000130000
#05712:1324
#05715:00240024
#0581b:00130000
#05819:0013
#05817:0000000000001313
#05812:2400000000001313
#05814:0013
#05816:00130000
#0591b:00130013
#05912:0013
#05916:0000000000000013
#06016:13000013
#06012:0000001313000000
#06017:00131300
#0601b:13
#0601a:0000000000000024
#07012:00130013
#0701b:1313
#07016:2323
#07017:00230023
#07216:13000023
#0721b:13000023
#07217:00231300
#07212:00231300
#0731b:13
#07312:00130000
#07316:1313
#07314:0013001300000000
#07318:00130000
#08312:00000000130013000000130000130000
#08315:1313000013000000
#0831b:00130013000000000013000000001300
#08318:00000000001300130000000013000000
#04312:13130000
#04315:0013000000000000
#0431b:1313
#04316:0013
#04318:00000013000000000000000000000000
#07118:0013230000000000
#07112:13
#07115:00000013000000002300000000000000
#0711b:1313
#00114:00000028
#0011a:0000242424000000
#00112:0000242424000000
#0001b:0000000000000023
#00012:0000000000000023
#0331a:0024000024000000
#03312:0000002424000000
#03316:00240000
#03616:2424
#03612:00240024
#04914:00000028
#0491a:0000242424000000
#04912:0000242424000000
#07714:00000028
#0771a:0000242424000000
#07712:0000242424000000
#04416:2424
#0441a:00240024
#06112:0024000024000000
#0611a:0000002424000000
#06116:00240000
#00154:00000018
#0005b:0000000000000053
#00052:0000000000000063
#00258:13
#00255:00000000000000630000000000000000
#00658:00000000000000530000000000000000
#00655:13
#00452:00000000000000530000000000000000
#00558:0053
#00552:00000053
#0055b:00000013
#0085b:00000000000000630000000000000000
#00952:0016
#00958:00000016
#01052:13
#0125b:00530000
#01258:0000000000000053
#0185b:13
#01752:00530014
#0175a:0014
#02052:00630000
#02055:0000000000000063
#0165b:0000000000000063
#0275b:0000000000000053
#02858:00160000
#02852:00000016
#02957:00140014
#0295a:0014
#0305b:0000000000000053
#0305a:14
#03152:00530000
#0315b:0053
#03257:53000013
#03256:00135300
#03252:0000000000000054
#03354:00000014
#03358:00000014
#03352:0054
#0335a:0054
#0355b:00630013
#03556:00000013
#03552:0063
#03557:0063
#03858:1600000000530000
#0385b:00000023
#04056:6363
#04057:0000530000000053
#04052:0000000000000053
#04156:0053000000000000
#0415b:0053000000000000
#04152:00000016
#04158:0016
#04655:0000000000630000
#04652:16000023
#04758:00536300
#0475b:0000002300000000
#04755:0063
#04858:53
#0485b:0023000063000053
#04855:00636300
#04852:0000002300000063
#04954:00000018
#05052:00000000000000530000000000000000
#05058:13
#0525b:00000000000000630000000000000000
#05255:13
#07858:13000000000000630000000000000000
#0805b:00000000000000530000000000000000
#08158:00005313
#0815b:0000000000230000
#08155:00000063
#08152:0000000000000023
#08255:13000000000000530000000000000000
#08452:00000000000000630000000000000000
#08552:0016
#08558:00000016
#08752:00161600
#08758:0000001600000000
#0875a:0014000000000000
#08754:00000018
#06252:5353
#06256:00130013
#06457:53000013
#06452:53000013
#06456:00136300
#0645b:00136300
#06652:1600000000530000
#06655:00000023
#06658:0000000000530000
#0665b:00000023
#0675b:00630000
#06756:00630000
#06757:0063
#06752:0063
#06958:0063000016000000
#06952:00000016
#06955:0053000000000000
#06852:0000000000000053
#0685b:0000000000000063
#0745b:0000000000630000
#07458:16000023
#07455:0000000000630000
#07452:00000023
#07754:00000018
#0765b:0000000000000053
#07652:0000000000000063
#08652:5600000000000014
#08656:0000000000000054
#0255b:00630000
#02552:0014
#0255a:00000014
#02452:0000000000000053
#0345a:00140014
#03652:00140014
#04252:00140014
#0445a:00140014
#05552:0000000000000063
#05652:00160000
#05658:00000016
#05755:00140014
#05752:0014
#05852:1400000000000063
#0595b:00630000
#05952:0063
#06056:63000013
#06057:00136300
#0605a:0000000000000064
#0615a:0064
#06152:0064
#06158:00000014
#06154:00000014
#0705b:6363
#07057:00130013
#07256:63000013
#0725b:63000013
#07257:00135300
#07252:00135300
#07552:00530000
#07557:00530000
#07556:0053
#0755b:0053
#03955:00635300
#03952:0000002300000000
#03958:0053
#04352:00530013
#0435b:0053
#04356:0053
#04357:00000013
#06352:0053
#06355:00530000
#06358:0053
#0715b:0063
#07158:00630000
#07155:0063
#05358:0016
#05352:00000016
#0003b0:0000000000000013
#001380:0023000000000000
#000321:0000000000000013
#001351:0023000000000000
#002351:00000000000000130000000000000000
#002321:0000000000230000
#004321:00000000000000130000000000000000
#004351:0000000000230000
#005381:0013
#0053b1:00000023
#005320:00000013
#006350:23
#006380:00000000000000130000000000000000
#0063b0:0000000000230000
#0083b0:00000000000000130000000000000000
#008380:0000000000230000
#011350:00130000
#011320:0023
#0113b1:0013
#011381:00000023
#0123b1:00130000
#012381:0023
#012381:0000000000000013
#0133b1:0023000000000000
#0133b1:00130000
#013381:0023
#013350:0013
#013320:00000023
#015320:00130000
#015350:0023
#0153b1:0013
#015381:00000023
#016321:1323
#016351:00330000
#0163b1:0000000000000013
#017371:0023000000000000
#017321:00130000
#017361:0023
#019381:00130000
#0193b1:0023
#019320:0013
#019350:00000023
#020320:00130000
#020350:0023
#020350:0000000000000013
#021320:0023000000000000
#021320:00130000
#021350:0023
#021381:0013
#0213b1:00000023
#0233b1:00130000
#023381:0023
#023320:0013
#023350:00000023
#0243b0:1323
#024380:00330000
#024320:0000000000000013
#025360:0023000000000000
#0253b0:00130000
#025370:0023
#0273b0:0000000000000013
#028380:0023000000000000
#0303b0:0000000000000013
#031370:00230000
#031321:00130000
#031361:0023
#0313b0:0013
#031370:00000023
#032370:13
#0323b0:00230000
#032360:0013
#032320:00000023
#032320:0000000000000014
#033360:0024000000000000
#033320:0014
#033340:00000024
#0333a1:0014
#033381:00000024
#0353b1:00130023
#035371:0033
#035320:0013
#035360:00000023
#0363b0:13
#036370:00230000
#0363b0:0013
#036370:00000023
#038380:0000000000130023
#0383b0:00000053
#039350:00133300
#039320:0000005300002300
#039381:0013
#0393b1:00000023
#040361:13
#040321:00230000
#040370:00130000
#0403b0:0023
#040361:0013
#040321:00000023
#040321:0000000000000013
#041361:0033000000000000
#041321:0000002300000000
#040370:0000000000000013
#0413b0:0033000000000000
#041370:0000002300000000
#043320:00130023
#043360:0033
#0433b1:0013
#043371:00000023
#044321:13
#044361:00230000
#044321:0013
#044361:00000023
#046351:0000000000130023
#046321:00000053
#047381:00133300
#0473b1:0000005300002300
#047350:0013
#047320:00000023
#048380:13230000
#0483b0:0053000000000000
#048351:00133300
#048321:0000005300002300
#0483b0:0013
#048380:00000023
#0483b0:0000000000000013
#049380:0023000000000000
#048321:0000000000000013
#049351:0023000000000000
#050321:00000000000000130000000000000000
#050351:0000000000230000
#051321:0013
#051341:00000000000000000033000000000000
#051361:0000000000230000
#0513b1:00000013
#051391:00000000000000000000000000330000
#051371:0000000000000023
#0523b1:00000000000000130000000000000000
#052381:0000000000230000
#055321:0000000000000013
#056351:0023000000000000
#058321:0000000000000013
#059361:00230000
#0593b0:00130000
#059370:0023
#059321:0013
#059361:00000023
#060361:13
#060321:00230000
#060371:0013
#0603b1:00000023
#0603a1:0000000000000014
#061361:0024000000000000
#0613a1:0014
#061381:00000024
#061320:0014
#061340:00000024
#062320:13
#062360:00230000
#062320:0013
#062360:00000023
#063350:00130023
#063320:0033
#063381:0013
#0633b1:00000023
#064371:13
#0643b1:00230000
#064320:13
#064360:00230000
#064360:0013
#064320:00000023
#0643b1:0013
#064371:00000023
#065321:00001323
#065351:0000000000330000
#065380:00000013
#0653b0:0000000000000033
#066380:23
#066320:0000000000130023
#066350:00000053
#066381:0000000000130023
#0663b1:00000053
#0673b1:00130023
#067371:0033
#067360:00130023
#067320:0033
#068320:0000000000000013
#069350:0033000000000000
#069320:0000002300000000
#0683b1:0000000000000013
#069381:0033000000000000
#0693b1:0000002300000000
#0703b1:13
#070371:00230000
#0703b1:0013
#070371:00000023
#071381:00130023
#0713b1:0033
#071350:0013
#071320:00000023
#072360:13
#072320:00230000
#0723b1:13
#072371:00230000
#072371:0013
#0723b1:00000023
#072320:0013
#072360:00000023
#0733b0:00001323
#073380:0000000000330000
#073351:00000013
#073321:0000000000000033
#074351:23
#0743b1:0000000000130023
#074381:00000053
#074350:0000000000130023
#074320:00000053
#075320:00130023
#075360:0033
#075371:00130023
#0753b1:0033
#0763b1:0000000000000013
#077381:0023000000000000
#076320:0000000000000013
#077350:0023000000000000
#078380:00000000000000130000000000000000
#0783b0:0000000000230000
#0803b0:00000000000000130000000000000000
#080380:0000000000230000
#081380:00001323
#0813b0:0000000000330000
#081351:00000013
#081321:0000000000000033
#082351:23
#082351:00000000000000130000000000000000
#082321:0000000000230000
#084321:00000000000000130000000000000000
#084351:0000000000230000
#086321:16000022
#086361:0000000000000014
#0873a1:0024000000000000
