This file was generated by Ched 2.7.0.0.
#TITLE ""
#ARTIST ""
#DESIGNER ""
#DIFFICULTY 0
#PLAYLEVEL
#SONGID ""
#WAVE ""
#WAVEOFFSET 0
#JACKET ""
#REQUEST "ticks_per_beat 480"
#00002: 4
#BPM01: 160
#00008: 01
#TIL00: ""
#HISPEED 00
#MEASUREHS 00
#00218:0013000000000000
#00215:00130000
#00212:1300000000001313
#0021b:00000000000013330000000000000000
#0031b:13130000
#00315:0013001300000000
#00318:00001313
#00312:0000000000130013
#00418:00001300000013330000000000000000
#00415:0000130000001313
#0041b:23
#0051b:00130000
#00518:2300001300000000
#00512:0023000014000000
#00514:00000024
#0101b:0013130000000013
#01015:0000000013130000
#01012:13
#01118:13
#01115:0013000013000000
#01112:00130000
#0121b:0013000000000013
#01215:00130000
#01218:0013
#01212:0000000000130000
#01418:0013130000000013
#01415:0000000013130000
#01515:0000130000000013
#01518:00000013
#01618:13
#01612:00140000
#0161a:0014
#01615:0000000000001313
#01812:0013130000000013
#01818:0000000013130000
#0181b:13
#01810:41
#01915:13
#01918:0013000013000000
#0191b:00130000
#02012:0013000000000013
#02018:00130000
#02015:0013
#0201b:0000000000130000
#02215:0013130000000013
#02218:0000000013130000
#02318:0000130000000013
#02315:00000013
#02415:13
#0241a:00140000
#02412:0014
#02418:0000000000001313
#0171b:00130000
#01718:0023
#01715:00000023
#02612:23000013
#0261b:0000000000000013
#02615:00230000
#02618:0023
#02610:41
#02715:23000013
#02718:0000230000000013
#0271b:0023
#02818:0013
#02815:0000000000130000
#02812:00230000
#0281b:00000023
#02915:1323
#02918:0013001300000000
#0291b:0000000000130013
#02912:00230023
#03018:00130000
#0301b:0013
#03015:2300000000000013
#0311b:0013
#03114:0000000000000014
#03218:0000001414000000
#03214:14
#03212:0000000000000024
#03415:1313
#0341b:00130013
#03412:00230023
#03410:41
#03515:13130000
#03518:0013000000000000
#03512:0013
#03618:1313
#03612:00130013
#0361b:00230023
#03718:13130000
#03715:0013001300000000
#0371b:00001313
#03712:0000000000130013
#03818:0013130000000000
#03815:0000001300130000
#0381b:0013
#03918:1313
#03915:0013000000000000
#0391b:00130000
#04012:14000013
#04016:00140000
#0401a:0014
#04112:0013000000000000
#04119:0024
#04113:00000024
#04218:13
#04215:0013
#0421b:00130013
#04212:00230023
#04318:13130000
#04315:0013000000000000
#0431b:0013
#04515:13130000
#04518:0013001300000000
#04512:00001313
#0451b:0000000000130013
#04615:0013130000000000
#04618:0000001300130000
#04612:0013
#0461b:0000000000000013
#04610:41
#04712:00130000
#04715:0013
#0481a:14
#04816:00140000
#04812:0014
#0481b:0000000000001323
#04415:13
#04418:0013
#04412:00130013
#0441b:00230023
#07815:0013000000001313
#07818:00130000
#07812:0000001300000000
#0781b:13
#0791b:1313
#07918:00130013
#07912:0013001300000000
#07915:0000000000130013
#0801b:2313000000000000
#08015:00130000
#08018:0000001300001313
#08112:23130000
#08115:0000001300000000
#0811a:0014
#0811b:0023000000000000
#08118:00000024
#05018:0013000000000000
#05012:13130000
#05015:0000000000001313
#0501b:00000000000013330000000000000000
#0511b:1313
#05118:00130013
#05115:0013000000130000
#05112:0000001300000013
#05315:00130000
#0531b:0000001300000000
#05312:2324
#05318:0023000000000000
#08218:0013000000001313
#08215:00130000
#0821b:0000001300000000
#08213:14
#08312:1313
#08315:00130013
#0831b:0013001300000000
#08318:0000000000130013
#08412:2313000000000000
#08418:00130000
#08415:0000001300001313
#08518:00130000
#08515:0000001300000000
#0851b:23
#08512:0023000000000000
#08519:0024
#08513:00000024
#0541b:23000013
#05412:0000000000000013
#0541f:11
#05418:00230000
#05415:0023
#05815:00130000
#05812:0013
#05818:2300000000000013
#05912:0013
#0591a:0000000000000014
#06012:0000001414000000
#0601a:1400000000000024
#0691b:0013000000000000
#06913:0024
#06919:00000024
#0681b:00000013
#0681a:24
#06816:00240000
#06812:0024
#07612:2400000000001323
#07616:00240000
#0761a:0024
#0631b:13130000
#06315:0013000000000000
#06318:0013
#06310:41
#06412:1313
#0641b:1313
#06415:00230000
#06418:00000023
#06512:1313
#0651b:0013001300000000
#06515:00130013
#06518:0000000000130013
#06612:0013000000000000
#0661b:0000131300000000
#06618:0000000000130000
#06615:0013
#06712:1313
#06718:0013000000000000
#06715:00130000
#0621b:1313
#06212:1313
#06218:00230000
#06215:00000023
#0621f:21
#07112:13230000
#07118:0013000000000000
#07115:0013
#0721b:1313
#07215:1313
#07218:00230023
#07212:00230023
#0731b:1313
#07312:0013001300000000
#07318:00130013
#07315:0000000000130013
#0741b:0013000000000000
#07412:0000131300000013
#07415:0000000000130000
#07418:0013
#07518:00130000
#0751b:0013
#07012:1313
#07018:1313
#07015:00230023
#0701b:00230023
#0861b:13
#01315:00130000
#01312:0013
#00615:0013000000000000
#00618:00130000
#0061b:0000000000001313
#00612:00000000000013330000000000000000
#00619:14
#00610:41
#00712:13130000
#00718:0013001300000000
#00715:00001313
#0071b:0000000000130013
#00815:00001300000013330000000000000000
#00818:0000130000001313
#00812:23
#00912:00130000
#00918:0000001300000000
#00913:0024
#00919:00000024
#00915:23
#0091b:0023000000000000
#02118:00130000
#0211b:0013
#05215:0013000000000000
#0521b:13130000
#05218:0000000000001313
#05212:00000000000013330000000000000000
#05518:23000013
#05515:0000230000000013
#05512:0023
#05615:0013
#05618:0000000000130000
#0561b:00230000
#05612:00000023
#05718:1323
#05715:0013001300000000
#05712:0000000000130013
#0571b:00230023
#02512:00130000
#02515:0023
#02518:00000023
#08719:00141400
#08713:0000001400000000
#08714:00000028
#00118:00000026
#00113:00242400
#00119:0000002400000000
#0001b:0000000000000023
#03312:0000002400000000
#0331a:00242400
#04918:00000026
#04913:00242400
#04919:0000002400000000
#0611a:0000002400000000
#06112:00242400
#07712:00000026
#07719:00242400
#07713:0000002400000000
#00158:00000016
#0005b:0000000000000053
#01152:00530000
#01155:0053
#0125b:0000000000000053
#01458:0000000000000063
#01555:00530000
#0195b:00630000
#01958:0063
#02052:0000000000000063
#02255:0000000000000053
#02358:00630000
#0175b:00530000
#01758:0013
#01755:00000013
#01655:0000000000000053
#02458:0000000000000063
#03058:00530000
#03055:1300000000000063
#0305b:0053
#0315b:0063
#03252:0000140000000054
#0325a:00000014
#03254:54
#03258:0054
#0335a:0054
#03356:00000014
#03555:00530013
#03552:0053
#03855:0000000000630000
#0395b:00530000
#03958:0053
#04152:0053000000000000
#04153:00000014
#04159:0014
#04358:00630013
#0435b:0063
#04658:0000000000530000
#0465b:0000000000000053
#04752:00630000
#04755:0063
#04958:00000016
#0485b:0000000000000053
#05356:00000014
#05352:0054
#05855:00630000
#05858:1300000000000053
#05852:0063
#05952:0053
#06052:0064
#0605a:6400000000000064
#06055:00000014
#06057:00140000
#06152:0064
#06156:00000014
#0695b:0063000000000000
#06953:0014
#06959:00000014
#07752:00000016
#07652:0000000000000063
#0635b:00530000
#06358:0053
#06658:0000000000530000
#06755:00530000
#06752:0053
#07155:0063
#07152:00530000
#07455:0000000000630000
#07452:0000000000000063
#07558:00630000
#0755b:0063
#0865b:53
#01355:00630000
#01352:0063
#0025b:0000005300000000
#00252:13
#00458:0000005300000000
#00652:0000006300000000
#00659:14
#00855:0000006300000000
#02158:00530000
#0215b:0053
#02758:0000000000000053
#0505b:0000005300000000
#05052:13
#05252:0000006300000000
#0525b:13
#05555:0000000000000063
#01052:13
#00953:0014
#00959:00000014
#0185b:13
#02552:00630000
#02555:0013
#02558:00000013
#02852:00130000
#0285b:00000013
#0565b:00130000
#05652:00000013
#0785b:13
#08559:0014
#08553:00000014
#08753:0014001400000000
#08759:00141400
#08754:00000018
#00552:0054
#00554:00000014
#0815a:0064
#08158:00000014
#08253:14
#0003b0:0000000000000013
#001380:0023000000000000
#0023b0:00000000000013330000000000000000
#002380:0000000000230000
#004380:00000000000013330000000000000000
#0043b0:0000000000230000
#005320:0014
#005340:00000024
#006320:00000000000013330000000000000000
#006350:0000000000230000
#008350:00000000000013330000000000000000
#008320:0000000000230000
#011320:00130023
#011350:0033
#0123b0:0000000000000013
#013380:0023000000000000
#013350:00130023
#013320:0033
#014380:0000000000000013
#0153b0:0023000000000000
#015350:00130000
#015320:0023
#016350:0000000000000013
#017320:0023000000000000
#0173b0:00130000
#017380:0023
#0193b0:00130023
#019380:0033
#020320:0000000000000013
#021350:0023000000000000
#021380:00130023
#0213b0:0033
#022350:0000000000000013
#023320:0023000000000000
#023380:00130000
#0233b0:0023
#024380:0000000000000013
#0253b0:0023000000000000
#025320:00130000
#025350:0023
#027380:0000000000000013
#0283b0:0023000000000000
#030380:00130023
#0303b0:0033
#030350:0000000000000013
#031320:00230000
#0313b0:0013
#031380:00000023
#032340:14
#032320:00240000
#032380:0014
#0323a0:00000024
#032320:0000000000000014
#033360:0024000000000000
#0333a0:0014
#033360:00000024
#035350:00130023
#035320:0033
#038350:0000000000130000
#038320:0000000000000023
#0393b0:00130023
#039380:0033
#040320:0000000000000013
#041320:0033000000000000
#041360:0000002300000000
#043380:00130023
#0433b0:0033
#046380:0000000000130000
#0463b0:0000000000000033
#047380:0023000000000000
#047320:00130023
#047350:0033
#0483b0:0000000000000013
#049380:0023000000000000
#0503b0:00000000000013330000000000000000
#050380:0000000000230000
#052320:00000000000013330000000000000000
#052350:0000000000230000
#053320:0014
#053360:00000024
#055350:0000000000000013
#056320:0023000000000000
#058350:00130023
#058320:0033
#058380:0000000000000013
#0593b0:00230000
#059320:0013
#059350:00000023
#0603a0:14
#060370:00240000
#060320:0014
#060350:00000024
#0603a0:0000000000000014
#061360:0024000000000000
#061320:0014
#061360:00000024
#0633b0:00130023
#063380:0033
#066380:0000000000130000
#0663b0:0000000000000023
#067350:00130023
#067320:0033
#0683b0:0000000000000013
#0693b0:0033000000000000
#069370:0000002300000000
#071320:00130023
#071350:0033
#074350:0000000000130000
#074320:0000000000000033
#075350:0023000000000000
#075380:00130023
#0753b0:0033
#076320:0000000000000013
#077350:0023000000000000
#078380:00000000000000130000230000000000
#080320:00000000000000130000230000000000
#0813a0:0014
#081380:00000024
#082350:00000000000000130000230000000000
#0843b0:00000000000000130000230000000000
#0863b0:13
#086370:00000023
#086330:0000000000000014
#087330:0024000000000000
