This file was generated by Ched 2.7.0.0.
#TITLE ""
#ARTIST ""
#DESIGNER ""
#DIFFICULTY 0
#PLAYLEVEL
#SONGID ""
#WAVE ""
#WAVEOFFSET 0
#JACKET ""
#REQUEST "ticks_per_beat 480"
#00002: 4
#BPM01: 160
#00008: 01
#TIL00: ""
#HISPEED 00
#MEASUREHS 00
#02616:13
#02617:00130000
#0261b:0000001300000000
#0261a:0013000000000000
#02614:0000000000000013
#02619:00000013
#02612:24252600
#02610:41
#00113:00150000
#00118:0000251300000000
#00115:0000002300000000
#00117:0022
#00212:1c131313
#00215:0000001300130000
#0021b:00001300000000130000000013000000
#00218:00130000
#00216:0000000000000014
#00312:13000000130000001400001400001400
#0031b:00130000000000130000000000000000
#00315:0013001300000000
#00318:00000013001300000000000000000000
#0031a:00000000000000000014000014001400
#00316:0000000000140000
#00412:24131313
#0041b:00130013
#00416:0000000000000014
#00415:0000001300130000
#00418:00001300000000130000000000000000
#0041a:24
#00512:13130000
#0051b:0013000000001300
#00516:2424241300142414
#0051a:000000000000003434143434000000000000000000000000
#00618:1600001300130000
#0061b:00131313
#00615:00130000
#00612:16001300000000130000000013000000
#00616:0000000000000014
#00610:41
#0081b:00131313
#00812:24130013
#00816:0000000000000014
#00818:0000001300130000
#00815:00001300000000130000000000000000
#0081a:24
#0091b:13
#00912:0013140014002400
#00915:000000000000003434140000000000000000000000000000
#0091a:000000000000240000003434000000000000140000000000
#00917:0000000000140000
#00916:2424000000000000
#01012:1300000013000013
#0101b:0013000000000000
#01016:0000130000130000
#0111b:13
#01117:1313130000000000
#0291a:14140014
#02919:0000001300000013
#02912:1414
#02914:0013000000130000
#02916:00242424
#02812:0013000014001400
#0281a:00141400
#02819:0000000000130000
#02816:00240024
#0271a:2400000000001414
#02712:0000001300001300
#02716:0000130000000013
#02717:13
#02713:0013000000000000
#02719:00250000
#02718:0026
#03416:0013000000130000
#03417:0000001300000013
#03412:2424
#0341a:00240024
#03410:41
#03512:13130000
#0351b:13
#0351a:0014001400000000
#03516:00000014140013000000140014001400
#03612:00130000000000000013000000000000
#03617:2413001324000013
#0361b:00000000001300000000000000130000
#03616:0000000000130000
#03615:00240024
#03812:0013001300130000
#0381b:0013000000130000
#03815:00130000
#03818:2613
#03912:0013130000000000
#03916:14000014
#0391b:0013000000000000
#03919:0000000000140000
#03913:0000000000000014
#03917:00130000
#04012:1300000013000013
#04018:0013000000130000
#0401b:13130013
#04015:0000001300000000
#04017:0000000000000013
#04112:0013000024002600
#04116:13130000
#04117:0013001300000000
#04118:0026
#0411a:00000024
#0461b:0013001300130000
#04612:2613000000130000
#04618:00130000
#04615:0013
#04610:41
#04817:0013001300130000
#04812:1313001300130024
#0481b:1313
#04816:00130013
#0481a:0000000000000024
#01812:0013000000000000
#01817:0000130000130000
#0181b:0000000013000013
#01815:16
#01810:41
#01217:0000130000000013
#01212:0013130000000000
#0121b:1300000000130000
#01216:1300000013130000
#0131b:13130000
#01312:0013000013000000
#01316:00130000
#01317:0013
#01412:1313
#0141b:0013000000130000
#01416:00130000
#01417:1300000000000013
#0151b:13000013
#01517:00130000
#01516:0000000013000014
#0161b:00000013
#01612:0000000000000013
#01616:1400140014001414
#01716:0013140028000000
#0171b:00130000
#0171a:00000014
#01712:00000028
#02016:0000130000000013
#0201b:0013130000000000
#02012:1300000000130000
#02017:1300000013130000
#02112:13130000
#0211b:0013000013000000
#02117:00130000
#02116:0013
#0221b:1313
#02212:0013000000130000
#02217:00130000
#02216:1300000000000013
#02312:13000013
#02316:0000130000000014
#02317:0013
#02412:00000013
#0241b:0000000000000013
#02416:1400140014001414
#02516:0000140000002814
#02517:0013000000000000
#02512:00132814
#03012:00131300
#03015:0000001200000000
#03019:0000000000120000
#03016:0000000000000013
#03017:00130000
#0301b:0000000000000013
#03014:28
#0311b:00131300
#03119:0000001200000000
#03115:0000000000120000
#03112:13130013
#03116:0000000000000014
#03117:13
#03216:1400001414130000
#0321b:13
#03217:0013000000000000
#0321a:0000140000140000
#03212:0014000013001426
#03218:0000000000000016
#03314:00140000
#03319:0000001400000000
#03312:16
#03318:16242600
#03313:0000002400000000
#0501b:0000000013000000000000000000000000130000000000000000000000000000
#05018:16000000130000130000000000000000
#05012:26131300
#05015:0013001300000000
#0511b:1313000000131300
#05118:00130000130000001300001300001300
#05115:00000013000013000013000000330000
#05112:00000000001300130000000000000000
#05212:1600000013000000000000000000000000130000000000000000000000000000
#05215:00000000130000130000000000000000
#0521b:00131300
#05218:2613001300000000
#05316:000000000000003232123232000000000000000000140000
#05318:000000260000163232123232000000000000000000000000
#05312:2616260000002c00
#0561b:0013000000000000
#05612:00141400
#0561a:00001414
#05614:0000000000130000
#05616:00240024
#05512:2500000000001414
#0551b:00000013
#05517:1300001300000013
#05515:0013000000000000
#05519:00130000
#05516:0025
#05514:00250000
#05412:00000013
#05416:1300001300000014
#05418:0013000000000000
#05414:00130000
#0541b:00000013
#0541f:11
#05415:0025
#05419:25
#05417:00250000
#06218:2613000026130000
#06215:0000001300000013
#06212:00260026
#0621f:21
#0631b:1313130000000013
#06312:1300001400130000
#06316:00000014140000000000000014000000
#06317:0000001300000000
#06310:41
#0641a:00140000000000000014000000000000
#06416:2413240024132400
#06412:00000000001400000000000000140000
#06417:0000001300000013
#06512:0013001313000000
#0651b:1300130000130013
#06517:0013001300001300
#06516:1300000000130013
#0661b:0013001300130000
#06612:2513000000130000
#06618:00130013
#06615:00001313
#06718:13120014
#0671b:0013000000000000
#06715:13
#06712:0013000000000014
#06716:0000120000140000
#06714:00000014
#0671a:0000000000000014
#0681b:1300001313000013
#06812:2313130000131300
#06816:0000000000000013
#0691b:0013000000000000
#06917:13130000
#06916:0013001300000000
#06912:00002624
#06918:00000026
#0691a:0024
#07616:0013001300130000
#0761b:2313001300130000
#07612:1300000013000024
#07617:00130013
#0761a:0000000000000024
#08116:0000240000141814
#0811b:23130000
#08117:0000001300000000
#08112:000000000000003434143434000000000000240000000000
#08115:0013000000000000
#08118:0023000000000000
#08517:000000000000003434140000000000000000000000000000
#0851a:00140000
#08512:230000000000240000003434000000160000260000000000
#08518:0013000026000000
#08515:0023000000000000
#07812:1c131313
#07815:0000001300130013
#0781b:00001300000000130000000013000000
#07818:0000130000000013
#07817:0000000000000000000000000000000000130000000000000000000000000000
#07912:1316001613001414
#07918:00130016000000160000130000000000
#07915:00000000130000000013000000000000
#0791b:00000000001300000000001300000000
#07916:00000000000000000000000000140000
#08015:0000130013130013
#0801b:0000000000000000130000000000000000130000000000001300000000000000
#08018:00001300000000130000000000001300
#08012:2600001300001300
#0821b:00131313
#08218:1600001300130013
#08212:16001300000000130000000013000000
#08215:0000130000000013
#08216:0000000000000000000000000000000000130000000000000000000000000000
#0831b:1313
#08315:00130000000000000000130000000000
#08318:00001600130016000013000000000000
#08312:00000016001300160000001300000000
#0831a:0000000000001414
#08316:00000000000000000000000000140000
#08418:2600130013130013
#08412:0000000000000000130000000000000000130000000000001300000000000000
#08415:00001300000000130000000000001300
#0841b:0000001300001300
#08713:00150000
#08718:0000000000000000250000001300000026363636363636360000000000000000
#08715:0000002300000000
#08712:0000000000000000000000000000000000363636363636360000000000000000
#0471b:0013130000000000
#04716:14130014
#04712:0013000000000000
#04713:0000000000140000
#04719:0000000000000014
#04217:0013000000130000
#04216:0000001300000013
#0421a:2424
#04212:00240024
#0431b:13130000
#04312:1314001400000000
#04316:00000014140000000000140014001400
#04317:0000001300000000
#0441b:00130000000000000013000000000000
#04416:0013001300000013
#04412:00000000001300000000000000130000
#04417:0000240000132400
#04415:2424
#04516:0000001300000000
#0451b:1300000000130000
#04517:0013000000000000
#04512:0000000000000013
#04918:0000152300000000
#04915:0000001300000000
#04913:00250000
#04917:0022
#05712:14140014
#05714:0000001300000013
#0571a:1414
#05719:0013000000130000
#05716:00242424
#0581b:00131300
#05819:0000001200000000
#05815:0000000000120000
#05817:0000000000000013
#05816:00130000
#05812:0000000000000013
#05814:28
#05912:00131300
#05915:0000001200000000
#05919:0000000000120000
#0591b:13130013
#05916:1300000000000014
#06016:1413001414000000
#06012:1300140000140016
#0601b:0013
#06017:0000000000130000
#0601a:0014000000001400
#06018:0000000000000026
#06118:16140000
#06113:0000001400000000
#06112:1626
#06114:00240000
#06119:0000002400000000
#07516:0000120000140000
#07514:00000014
#07518:13120014
#0751a:0000000000000014
#07512:0013000000000014
#07515:13
#0751b:0013000000000000
#07718:0000152300000000
#07715:0000001300000000
#07713:00250000
#07717:0022
#03717:0000001300000000
#03712:1300000000130000
#03716:0013000000000000
#0371b:0000000000000013
#07015:0013000000130000
#07018:0000261300002613
#07012:2626
#07112:1313130000000013
#0711b:1300000000130000
#07116:00000014140013000000000014000000
#0711a:0000001400000000
#0731b:0013001313000000
#07312:1300130000130013
#07316:0013001300001300
#07317:1300000000130013
#07412:0013001300130000
#0741b:0013000000130000
#07415:00130013
#07418:00001313
#07419:25
#07212:00140000000000000014000000000000
#07217:0013000000130000
#0721a:00000000001400000000000000140000
#07216:2400241324002413
#01912:13
#01916:1313130000000000
#0071b:13130000
#00712:00130000000000130014000014001400
#00718:0013001300000000
#00715:00000013001300000000000000000000
#0071a:00000000000000001400001400001400
#00716:0000000000140000
#0001a:0000000000000024
#00012:0000000000000024
#0861a:0000000000000024
#08612:0000000000000024
#0265a:0023000000000000
#0265b:0000002300000000
#02656:53
#02657:00530000
#02658:0033
#0025b:00000000000000630000000000000000
#00252:1c
#00552:13533300
#0055b:0013000000004300
#00556:0000542334004400
#0055a:0000002400000000
#00658:16
#00652:16000000000000530000000000000000
#0095b:13
#00952:0013000054003400
#00955:0000002400000000
#0095a:00544464
#00957:0000000000240000
#01056:14
#00458:00000000000000530000000000000000
#0045a:14
#00452:14
#00855:00000000000000630000000000000000
#0085a:14
#00852:14
#02956:00141414
#0275a:0000000000000054
#02757:63
#02756:00630000
#02752:0000002300000000
#02753:0023000000000000
#02755:0043
#03556:00541400
#0355a:0000005400000000
#03852:0000000000530000
#0385b:0000000000530000
#03858:16
#04052:2300000023000053
#0405b:00230000
#04057:0000000000000053
#04152:0053000000003600
#04156:23230000
#04158:0046
#04157:0053000000000000
#04857:0023000000230000
#0485b:5353
#04852:0000002300000000
#04856:00530000
#01257:0000630000000063
#01256:0000000000530000
#0135b:23530000
#01356:00530000
#01352:0063
#01357:0063
#01457:0000000000000063
#0155b:23
#01557:00630000
#01556:0053
#01855:16
#01756:00544800
#01752:00004438
#01656:0000000000000054
#02056:0000530000000053
#02057:0000000000630000
#02152:23630000
#02157:00630000
#0215b:0053
#02156:0053
#02256:0000000000000053
#02352:23
#02356:00530000
#02357:0063
#02456:0000000000000064
#02556:00640048
#02552:0038
#0255a:0034
#03057:00530000
#03052:0053
#03056:0000000000000053
#03054:18
#0305b:0000000000000053
#0315b:0063
#03152:23630000
#03157:23
#03256:54146414
#0325a:0000140000540000
#03252:0054000000001456
#03258:0000000000000056
#03352:26000016
#03358:26000016
#0505b:0000000000000000000000000000000000230000000000000000000000000000
#05058:16000000000000530000000000000000
#05252:1600000000000000000000000000000000230000000000000000000000000000
#05255:00000000000000630000000000000000
#05352:0056161c
#05356:0000002200000000
#05358:0000562216000000
#05552:0000000000000064
#05557:6300002300000000
#05555:0023000000000000
#05559:00630000
#0555b:0043
#06356:00641414
#06352:0000005400000000
#0665b:0000000000630000
#06652:1500000000630000
#06655:00000023
#06658:00000023
#0685b:5300000053000063
#06856:0000000000000063
#06852:00530000
#0695b:0063000000000000
#06957:23230000
#06956:0063000000000000
#06952:0036
#06958:00000046
#07656:0023000000230000
#07652:6363
#0765b:0000002300000000
#07657:00630000
#06758:00221600
#06752:0016
#06756:00220000
#06556:5300000000230000
#06552:0023000053000000
#0655b:0000530000000023
#06557:0000002300005300
#08557:0000002400000000
#08552:0000640014263600
#08558:00005646
#0785b:00000000000000630000000000000000
#07852:1c
#07857:0000000000000000000000000000000000230000000000000000000000000000
#0805b:0000000000000000000000000000000000230000000000000000000000000000
#08058:00000000000000530000000000000000
#08055:0000000000630063
#08052:00000023
#08252:16000000000000530000000000000000
#08256:0000000000000000000000000000000000230000000000000000000000000000
#08258:16
#08452:0000000000000000000000000000000000230000000000000000000000000000
#08455:00000000000000630000000000000000
#08458:0000000000530053
#0845b:00000023
#08152:0000002400003400
#08156:00644438
#0815b:00634300
#08157:0000002300000000
#00152:0000001c
#00157:0022
#02856:00440034
#0285a:00440000
#02852:00000034
#05652:00340000
#05656:00340044
#0565a:00000044
#0035a:0000000000000054
#00352:0000000000000054
#0465b:0000000000630000
#04652:1600000000630000
#0345a:00140014
#03655:00140014
#03957:00530000
#03952:00530000
#0395b:0013
#03956:0013
#04356:00641414
#04352:0000006400000000
#04252:00140014
#04457:00140014
#0475b:00630000
#04756:00630000
#04757:0013
#04752:0013
#04957:0022
#04952:0000001c
#05452:0033
#05456:5300002300000000
#05454:00530000
#05458:0023000000000000
#05857:0000000000000063
#0585b:0063
#05856:00630000
#05852:0000000000000063
#05854:18
#05952:0053
#0595b:23530000
#05956:23
#06056:64145414
#06052:0000140000640066
#0605a:0064000000001400
#06058:0000000000000066
#06158:26000016
#06152:26000016
#05756:00141414
#07757:0022
#07752:0000001c
#08752:00000036
#08758:00000046
#06252:00360036
#06456:00440044
#07156:00541414
#0715a:0000006400000000
#07452:0000000000530000
#0745b:0000000000530000
#07458:00000023
#07455:00000023
#07459:15
#07357:6300000000230000
#07352:0000630000000023
#07356:0000002300006300
#0735b:0023000063000000
#07058:00460046
#07256:00340034
#07556:00220000
#07558:00221600
#07552:0016
#0075a:0000000000000064
#00752:0000000000000064
#0003a0:0000000000000014
#001320:0024000000000000
#000321:0000000000000014
#0013a1:0024000000000000
#001371:0012
#001321:0000002c
#0023b1:00000000000000130000000000000000
#002381:0000000000230000
#003321:00000000000000000000000000145400
#0043a1:24
#0033a0:0000000000000014
#004320:24
#004380:00000000000000130000000000000000
#0043b0:0000000000230000
#005320:00132300
#005360:0000005300000000
#005361:00142400
#0053a1:000000000000003434343434000000000000000000000000
#006321:00000000000000130000000000000000
#006351:0000000000230000
#0073a1:00000000000000000000000000145400
#008321:24
#007320:0000000000000014
#0083a0:24
#008350:00000000000000130000000000000000
#008320:0000000000230000
#0093a0:000000000000140000003434240000000000000000000000
#009350:000000000000003434340000000000000000000000000000
#009321:00001424
#009371:0000000000540000
#0093a0:00000014
#010360:24
#0103b0:00130000
#010370:0023
#0103b0:0000000000130000
#010370:0000000000000023
#0113b0:00130000
#011360:00003323
#011321:00001323
#012371:00130000
#0123b1:0023
#012361:0000000000130000
#012321:0000000000000023
#012370:0000000000000013
#0133b0:53
#013370:0023000000000000
#0133b0:00130023
#013370:0033
#013361:00130023
#013321:0033
#0143b1:00130000
#014371:0023
#014361:0000000000130000
#014321:0000000000000023
#014370:0000000000000013
#0153b0:53
#015370:0023000000000000
#015321:0013230000000000
#015370:00130000
#0153b0:0023
#015361:0013
#015321:00000023
#016321:1323000000000000
#0163b1:0000132300000000
#016321:0000000013230000
#016361:0000000000000014
#0173a1:0024000000000000
#017361:00140000
#017321:0024
#018321:00130000
#018361:0023
#018321:0000000000130000
#018361:0000000000000023
#019321:00130000
#019371:00003323
#0193b0:00001323
#020360:00130000
#020320:0023
#020370:0000000000130000
#0203b0:0000000000000023
#020361:0000000000000013
#021321:53
#021361:0023000000000000
#021321:00130023
#021361:0033
#021370:00130023
#0213b0:0033
#022320:00130000
#022360:0023
#022370:0000000000130000
#0223b0:0000000000000023
#022361:0000000000000013
#023321:53
#023361:0023000000000000
#0233b0:0013230000000000
#023361:00130000
#023321:0023
#023370:0013
#0233b0:00000023
#0243b0:1323000000000000
#024320:0000132300000000
#0243b0:0000000013230000
#024360:0000000000000014
#025320:0024000000000000
#025360:00140000
#0253a0:0024
#026360:13
#0263a0:0033000000000000
#026370:00330000
#0263b0:0000003300000000
#026380:0023
#027370:13
#027330:0033000000000000
#027360:00330000
#027320:0000003300000000
#027350:0023
#0273a0:0000000000000014
#028360:0024000000000000
#030370:00130000
#0303b0:0023
#030321:0013
#030361:00000023
#0303b0:0000000000001333
#031370:53
#0313b0:0023000000000000
#030361:0000000000000013
#031321:53
#031361:0023000000000000
#031321:00130000
#031361:0023
#0313b0:0013
#031370:00000023
#032360:14240000
#032320:0034000000000000
#032360:00001424
#0323a0:0000000000340000
#032320:0000000000000016
#033380:56
#033320:0026000000000000
#032381:0000000000000016
#033321:56
#033381:0026000000000000
#033381:00001626
#033331:00000000005b0000
#033320:000000000000000000000000000000000000000000000000000000000000000000000000000000000000000000000000000000000000000000000000000000000000000000000000000000000000000000000000000000000000000000000000000000000000000000000000000000000000000000000000000000000000000000000000000000000000000000000000000000000000000000000000000000000000000000000000000000000000000000000000000000000000000000000000000000000000000000000000000000000000000000000000000000000000000000000000000000000000000000000000000000000000000000000000000000000000000000000000000000000000000000000000000000000000000000000000000000000000000000000000000000000000000000000000000000000000000000000000000000000000000000000000000000000000000000000000000000000000000000000000000000000000000000000000000000000000000000000000000000000000000000000000000000000000000000000000000000000000000000000000000000000000000000000000000000000000000000000000000000000000000000000000000000000000000000000000000000000000000000000000000000000000000000000000000000000000000000000000000000000000000000000000000000000000000000000000000000000000000000000000000000000000000000000000000000000000000000000000000000000000000000000000000000000000000000000000000000000000000000000000000000000000000000000000000000000000000000000000000000000000000000000000000000000000000000000000000000000000000000000000000000000000000000000000000000000000000000000000000000000000000000000000000000000000000000000000000000000000000000000000000000000000000000000000000000000000000000000000000000000000000000000000000000000000000000000000000000000000000000000000000000000000000000000000000000000000000000000000000000000000000000000000000000000000000000000000000000000000000000000000000000000000000000000000000000000000000000000000000000000000000000000000000000000000000000000000000000000000000000000000000000000000000000000000000000000000000000000000000000000000000000000000000000000000000000000000000000000000000000000000160000000000000000000000000000000000000000000000000000000000000000000000000000000000000000000000000000000000000000000000000000000000000000000000000000000000000000000000000000000000000000000000000000000000000000000000000000000000000000000000000000000000000000000000000000000000000000000000000000000000000000000000000000000000000000000000000000000000000000000000000000000000000000000000000000000000000000000000000000000000000000000000000000000000000000000000000000000000000000000000005b00000000000000000000000000000000000000000000000000000000000000000000000000000000000000000000000000000000000000000000000000000000000000000000000000000000000000000000000000000000000000000000000000000000000000000000000000000000000000000000000000000000000000000000000000000000000000000000000000000000000000000000000000000000000000000000000000000000000000000000000000000000000000000000000000000000000000000000000000000000000000000000000000000000000000000000000000000000000000000000260000000000000000000000000000000000000000000000000000000000000000000000000000000000000000000000000000000000000000000000000000000000000000000000000000000000000000000000000000000000000000000000000000000000000000000000000000000000000000000000000000000000000000000000000000000000000000000000000000000000000000000000000000000000000000000000000000000000000000000000000000000000000000000000000000000000000000000000000000000000000000000000000000000000000000000000000000000000000000000000000000000000000000000000000000000000000000000000000000000000000000000000000000000000000000000000000000000000000000000000000000000000000000000000000000000000000000000000000000000000000000000000000000000000000000000000000000000000000000000000000000000000000000000000000000000000000000000000000000000000000000000000000000000000000000000000000000000000000000000000000000000000000000000000000000000000000000000000000000000000000000000000000000000000000000000000000000000000000000000000
#034390:1323000000000000
#034340:0000132300000000
#034390:0000000013230000
#034340:0000000000001323
#035360:00142400
#0353a0:0000003400000000
#035321:0000000013230000
#0353b1:0000000000001323
#037371:13
#0373b1:0033230000000000
#037320:0000133300000000
#037360:0023
#0373b1:00001323
#037371:0000000000330000
#037320:00000013
#037360:0000000000000033
#038320:23
#038380:00130000
#0383b0:0000002300000000
#038350:0013
#038320:0000000000330000
#0383b0:0000000000000023
#0383b1:0000000000130000
#038321:0000000000000023
#039321:00130000
#039361:0023
#039370:00130000
#0393b0:0023
#040320:13
#040370:00230000
#0403b1:00130000
#040361:0023
#040320:0013
#040370:00000023
#040320:0000000000000013
#041360:53530000
#041320:0033002300000000
#040371:0000000000000013
#0413b1:23
#041371:0013000000000000
#0413b1:00230000
#041320:0014
#041360:0000000000240000
#0413a0:00000014
#041360:0000000000000024
#042340:1323000000000000
#042390:0000132300000000
#042340:0000000013230000
#042390:0000000000001323
#043360:00142400
#043320:0000003400000000
#0433b1:0000000013230000
#043321:0000000000001323
#045361:13
#045321:0033230000000000
#0453b0:0000133300000000
#045370:0023
#045321:00001323
#045361:0000000000330000
#0453b0:00000013
#045370:0000000000000033
#0463b0:23
#046350:00130000
#046320:0000002300000000
#046380:0013
#0463b0:0000000000330000
#046320:0000000000000023
#046321:0000000000130000
#0463b1:0000000000000023
#0473b1:00130000
#047371:0023
#047360:00130000
#047320:0023
#0483b0:13230000
#048370:0053000000000000
#048361:00132300
#048321:0000005300000000
#0483b0:00001323
#048370:0000000000530000
#048320:0000000000000014
#0493a0:0024000000000000
#0483a1:0000000000000014
#049321:0024000000000000
#049371:0012
#049321:0000002c
#050381:00000000000000130000230000000000
#0503b1:0000000000000000000000000000000000530000000000000000000000000000
#050320:0000000000130033
#050350:00000033
#051350:23
#0503b1:00000013
#050381:0000000000000023
#051350:00000000000000000000000013330000
#051320:0000000000000023
#052350:00000000000000130000230000000000
#052320:0000000000000000000000000000000000530000000000000000000000000000
#0523b1:0000000000130033
#052381:00000033
#053381:23
#052320:00000013
#052350:0000000000000023
#053321:00162600
#053361:000000000000003232323232000000000000000000000000
#053380:000000000000163232323232260000000000000000000000
#054360:1300003300000000
#054380:0033000000000000
#054340:00330000
#054320:0023
#055370:1300003300000000
#055350:0033000000000000
#055390:00330000
#0553b0:0023
#055320:0000000000000014
#056360:0024000000000000
#058360:00130000
#058320:0023
#0583b1:0013
#058371:00000023
#058320:0000000000001333
#059360:53
#059320:0023000000000000
#058371:0000000000000013
#0593b1:53
#059371:0023000000000000
#0593b1:00130000
#059371:0023
#059320:0013
#059360:00000023
#060360:14240000
#0603a0:0034000000000000
#060360:00001424
#060320:0000000000340000
#060380:0000000000000016
#061320:56
#061380:0026000000000000
#060321:0000000000000016
#061381:56
#061321:0026000000000000
#061321:00000000165b2600
#061380:00001626
#061330:000000000000000000000000000000000000000000000000000000000000000000000000000000000000000000000000000000000000000000000000000000000000000000000000000000000000000000000000000000000000000000000000000000000000000000000000000000000000000000000000000000000000000000000000000000000000000000000000000000000000000000000000000000000000000000000000000000000000000000000000000000000000000000000000000000000000000000000000000000000000000000000000000000000000000000000000000000000000000000000000000000000000000000000000000000000000000000000000000000000000000000000000000000000000000000000000000000000000000000000000000000000000000000000000000000000000000000000000000000000000000000000000000000000000000000000000000000000000000000000000000000000000000000000000000000000000000000000000000000000000000000000000000000000000000000000000000000000000000000000000000000000000000000000000000000000000000000000000000000000000000000000000000000000000000000000000000000000000000000000000000000000000000000000000000000000000000000000000000000000000000000000000000000000000000000000000000000000000000000000000000000000000000000000000000000000000000000000000000000000000000000000000000000000000000000000000000000000000000000000000000000000000000000000000000000000000000000000000000000000000000000000000000000000000000000000000000000000000000000000000000000000000000000000000000000000000000000000000000000000000000000000000000000000000000000000000000000000000000000000000000000000000000000000000000000000000000000000000000000000000000000000000000000000000000000000000000000000000000000000000000000000000000000000000000000000000000000000000000000000000000000000000000000000000000000000000000000000000000000000000000000000000000000000000000000000000000000000000000000000000000000000000000000000000000000000000000000000000000000000000000000000000000000000000000000000000000000000000000000000000000000000000000000000000000000000000000000000000000000000000000000000000000000000000000000000000000000000000000000000000000000000000000000000000000000000000000000000000000000000000000000000000000000000000000000000000000000000000000000000000000000000000000000000000000000000000000000000000000000000000000000000000000000000000000000000000000000000000000000000000000000000000000000000000000000000000000000000000000000000000000000000000000000000000000000000000000000000000000000000000000000000000000000000000000000000000000000000000000000000000005b00000000000000000000000000000000000000000000000000000000000000000000000000000000000000000000000000000000000000000000000000000000000000000000000000000000000000000000000000000000000000000000000000000000000000000000000000000000000000000000000000000000000000000000000000000000000000000000000000000000000000000000000000000000000000000000000000000000000000000000000000000000000000000000000000000000000000000000000000000000000000000000000000000000000000000000000000000000000000000000000000000000000000000000000000000000000000000000000000000000000000000000000000000000000000000000000000000000000000000000000000000000000000000000000000000000000000000000000000000000000000000000000000000000000000000000000000000000000000000000000000000000000000000000000000000000000000000000000000000000000000000000000000000000000000000000000000000000000000000000000000000000000000000000000000000000000000000000000000000000000000000000000000000000000000000000000000000000000000000000000000000000000000000000000000000000000000000000000000000000000000000000000000000000000000000000000000000000000000000000000000000000000000000000000000000000000000000000000000000000000000000000000000000000000000000000000000000000000000000000000000000000000000000000000000000000000000000000000000000000000000000000000000000000000000000000000000000000000000000000000000000000000000000000000000000000000000000000000000000000000000000000000000000000000000000000000000000000000000000000
#062320:13
#062350:0023000000000000
#0623b0:00130000
#062380:0000002300000000
#062320:0013
#062350:0000000000230000
#0623b0:00000013
#062380:0000000000000023
#063360:00142400
#063320:0000003400000000
#0633b1:0000000013230000
#063321:0000000000001323
#065361:13230000
#065321:0033000000000000
#0653b0:00132300
#065370:0000003300000000
#065321:00001323
#065361:0000000000330000
#065370:00000013
#0653b0:0000000000000033
#066370:23
#066350:00130000
#066320:0000002300000000
#066380:0013
#0663b0:0000000000330023
#066350:00000053
#066321:0000000000130023
#066381:00000053
#067381:00122600
#067360:00120000
#067320:0026
#0683b0:13
#068360:00230000
#068321:00130000
#068371:0023
#0683b0:0013
#068360:00000023
#0683b0:0000000000000013
#069370:53530000
#0693b0:0033002300000000
#068361:0000000000000013
#069321:23
#069361:0013000000000000
#069321:00230000
#0693a0:0014
#069360:0000000000240000
#069320:00000014
#069360:0000000000000024
#0703b0:13
#070380:0023000000000000
#070320:00130000
#070350:0000002300000000
#0703b0:0013
#070380:0000000000230000
#070320:00000013
#070350:0000000000000023
#071360:00142400
#0713a0:0000003400000000
#071321:0000000013230000
#0713b1:0000000000001323
#073371:13230000
#0733b1:0033000000000000
#073320:00132300
#073360:0000003300000000
#0733b1:00001323
#073371:0000000000330000
#073360:00000013
#073320:0000000000000033
#074360:23
#074380:00130000
#0743b0:0000002300000000
#074350:0013
#074320:0000000000330023
#074380:00000053
#0743b1:0000000000130023
#074351:00000053
#075361:00120000
#075321:0026
#075380:00122600
#076320:13230000
#076360:0053000000000000
#076371:00132300
#0763b1:0000005300000000
#076320:00001323
#076360:0000000000530000
#076320:0000000000000014
#0773a0:0024000000000000
#0763a1:0000000000000014
#077321:0024000000000000
#077371:0012
#077321:0000002c
#0783b1:00000000000000130000230000000000
#078371:0000000000000000000000000000000000530000000000000000000000000000
#0793a1:0000000000000014
#0803a1:24
#080381:00000000000000130000230000000000
#0803b1:0000000000000000000000000000000000530000000000000000000000000000
#080350:0000000000130033
#080320:00000033
#081320:23
#0813b0:00132300
#081370:0000005300000000
#081361:00142400
#081321:000000000000003434343434000000000000000000000000
#082321:00000000000000130000230000000000
#082361:0000000000000000000000000000000000530000000000000000000000000000
#083321:0000000000000014
#084321:24
#084351:00000000000000130000230000000000
#084321:0000000000000000000000000000000000530000000000000000000000000000
#084380:0000000000130033
#0843b0:00000033
#0853b0:23
#085320:000000000000140000003434240000000000000000000000
#085370:000000000000003434340000000000000000000000000000
#085381:00001626
#085321:0000000000560000
#086381:16545222
#086331:0055000000000000
#086351:0000005300000000
#086361:0000000000520000
#086320:16
#086380:0055005300520000
#086340:00540000
#086360:00005222
#0863a0:0000000000000014
#087320:0024000000000000
#086321:0000000000000014
#0873a1:0024000000000000
#087381:0000000000000000000000000000000016363636363636360000000000000000
#087321:00000026
#087320:0000000000000000000000000000000016363636363636360000000000000000
#087380:00000026
