This file was generated by Ched 2.7.0.0.
#TITLE ""
#ARTIST ""
#DESIGNER ""
#DIFFICULTY 0
#PLAYLEVEL
#SONGID ""
#WAVE ""
#WAVEOFFSET 0
#JACKET ""
#REQUEST "ticks_per_beat 480"
#00002: 4
#BPM01: 160
#00008: 01
#TIL00: ""
#HISPEED 00
#MEASUREHS 00
#0031a:14000014
#00314:0014
#00512:14000014
#00518:0014
#00614:0014
#0061a:24
#00610:41
#00718:14
#00712:0014
#0071a:00000014
#00812:14
#00818:0014
#00914:14
#0091a:0024
#00912:00000024
#01014:0014
#0101a:24
#01412:14
#01418:0014
#01512:14
#01516:00140000
#0151a:0014
#04018:14
#04012:00140000
#0401a:0014
#04014:00000014
#04814:14
#0481a:00140000
#04812:0014
#04818:00000014
#01614:14
#01618:00140000
#01612:0014
#0161a:00000014
#02512:14000024
#0251a:0024
#02818:1414
#02814:00240024
#0291a:1424
#02912:00240024
#03219:14
#03213:14
#00214:0014
#0021a:24
#00412:14
#00418:0014
#01814:0014
#0181a:24
#01810:41
#02012:14
#02018:0014
#0111a:14
#01116:00140000
#01112:0014
#01218:14
#01212:0014
#01318:14
#01314:00140000
#0131a:0014
#0191a:14
#01918:00340000
#02112:14
#02114:00340000
#0221a:14
#02214:0014
#0241a:00140000
#02418:00000014
#02412:14
#02414:0014
#0341a:1414
#03412:00240024
#03410:41
#03814:14
#03818:0014
#03914:14
#0391a:00140000
#03912:0014
#04314:1414
#04318:00140000
#04618:14
#04614:0014
#04610:41
#04718:14
#04712:00140000
#0471a:0014
#05618:1414
#05614:00240024
#0571a:1424
#05712:00240024
#06019:1414
#06013:1414
#03518:1414
#03514:00140000
#06418:1414
#06412:00140014
#0651a:1414
#06514:00140014
#04112:3414340000000000
#04114:0024
#04118:00000024
#06812:14
#0681a:00140000
#06814:0014
#06818:00000014
#06618:14
#06614:0014
#0671a:14
#06712:00140000
#06718:0014
#07214:1414
#0721a:00140014
#07312:1414
#07318:00140014
#0761a:14
#07612:00140000
#07618:0014
#07614:00000014
#07414:14
#07418:0014
#07512:14
#0751a:00140000
#07514:0014
#05114:14140000
#05118:00001414
#05318:14
#05314:00140000
#0531a:0024
#05312:00000024
#02712:14
#02714:00340000
#02618:14
#0261a:00340000
#02610:41
#03114:14
#03112:00340000
#0301a:14
#03018:00340000
#05514:14
#05512:00340000
#05418:14
#0541f:11
#0541a:00340000
#05912:14
#05914:00340000
#0581a:14
#05818:00340000
#0691a:3414340000000000
#06914:00000024
#06918:0024
#0231a:14
#02318:00340000
#01714:14
#0171a:0024
#01712:00000024
#06212:1414
#0621a:00240024
#0621f:21
#0701a:1414
#07012:00240024
#07912:14
#0791a:0014
#07916:00000014
#08114:14
#0811a:0024
#08112:00000024
#0781a:0014
#07812:24
#08012:14
#08018:0014
#04212:1414
#0421a:00240024
#08414:0014
#0841a:14
#08316:00000014
#08312:0014
#0831a:14
#08518:14
#0851a:00000024
#08512:0024
#08212:0014
#0821a:24
#07718:00000024
#06119:00000024
#06113:00000024
#0871a:00000024
#08712:00000024
#00113:00000024
#03319:00000024
#03313:00000024
#06312:0024
#06310:41
#0711a:0024
#08612:24
#04914:00000024
#0195a:64
#02152:54
#04154:0014
#04158:00000014
#04152:0024000000000000
#04054:00000064
#06954:00000014
#0695a:0024000000000000
#06958:0014
#07758:00000014
#02752:54
#02658:54
#03154:64
#0305a:64
#05554:64
#05458:54
#05952:54
#0585a:64
#03558:0014
#04354:0014
#00153:00000014
#06858:00000054
#0235a:64
#03359:00000014
#03353:00000014
#06159:00000014
#06153:00000014
#0715a:0014
#06352:0014
#08752:00000014
#0875a:00000014
#04954:00000014
#000330:0000000000000014
#001330:0034343434002400
#0193a0:14
#019380:00342400
#021320:14
#021340:00342400
#0233a0:14
#023380:00342400
#026380:14
#0263a0:00343424
#027320:14
#027340:00343424
#0303a0:14
#030380:00343424
#031340:14
#031320:00343424
#032390:0014
#033390:0034003400002400
#032331:0000000014000034
#033331:00343424
#036321:1535
#036341:00350025
#037391:1535
#037371:00350025
#040341:00000014
#041321:3454340000000000
#041341:0024
#044391:1535
#044371:00350025
#045321:1535
#045341:00350025
#048341:0000000000000014
#049341:0034343434002400
#0503a1:14
#050381:00000024
#052321:14
#052341:00000024
#054381:14
#0543a1:00343424
#055341:14
#055321:00343424
#0583a1:14
#058381:00343424
#059321:14
#059341:00343424
#060331:0000000000000014
#061331:00343424
#060390:0000000000000014
#061390:0034003400002400
#063320:1424
#063340:00340000
#068380:00000014
#0693a0:3454340000000000
#069380:0024
#0713a0:1424
#071380:00340000
#076380:0000000000000014
#077380:0034343434002400
#086320:0000000000000014
#087320:0034343434002400
#0863a1:0000000000000014
#0873a1:0034343434002400
