This file was generated by Ched 2.7.0.0.
#TITLE ""
#ARTIST ""
#DESIGNER ""
#DIFFICULTY 0
#PLAYLEVEL
#SONGID ""
#WAVE ""
#WAVEOFFSET 0
#JACKET ""
#REQUEST "ticks_per_beat 480"
#00002: 4
#BPM01: 128
#00008: 01
#TIL00: ""
#HISPEED 00
#MEASUREHS 00
#0011a:14
#00214:14
#00318:14
#00412:14
#0051a:14
#00614:14
#0151a:14
#01614:14
#01912:14
#02018:14
#02010:0041
#03112:0016
#03118:26
#0311f:21
#03318:0016
#03312:26
#03518:16
#03512:0016
#03618:16
#03612:0016
#03918:2616
#03910:41
#04112:2616
#04318:16
#04312:0016
#04418:16
#04412:0016
#04912:14
#04918:0014
#05014:14
#0501a:0014
#05112:14
#05118:0014
#05214:14
#0231f:11
#00710:41
#03210:41
#01410:41
#04510:41
#007380:14
#008380:24
#009320:14
#010320:24
#0113a0:14
#0123a0:24
#013340:14
#014340:24
#017380:14
#018380:24
#021340:14
#022340:24
#0233a0:14
#024380:34
#0253a0:34
#026380:24
#027320:14
#028340:34
#029320:34
#030340:24
#032380:1626
#034320:1626
#037380:1626
#038320:1626
#040380:1626
#042320:1626
#045380:1626
#046320:1626
#047380:1600003600003600
#048380:0036000036002600
#0523a0:0000000014343424
