This file was generated by Ched 2.7.0.0.
#TITLE ""
#ARTIST ""
#DESIGNER ""
#DIFFICULTY 0
#PLAYLEVEL
#SONGID ""
#WAVE ""
#WAVEOFFSET 0
#JACKET ""
#REQUEST "ticks_per_beat 480"
#00002: 4
#BPM01: 128
#00008: 01
#TIL00: ""
#HISPEED 00
#MEASUREHS 00
#0001b:00000013
#00012:00000013
#00118:13
#0011b:00000000130000001300001300000000
#0011a:0000000000000013
#00115:13
#00112:0013
#00213:00000013000000000000000000000000
#00212:0000001300001300
#00218:13
#0021b:0013
#0031b:00000000130000001300131300000000
#0031a:0000000000000013
#00315:13
#00312:0013
#0051b:00000013000013000000000013000000
#00512:00000000130000000000001300001300
#00515:13
#00518:0013
#0071b:13000013
#00712:0000001300000000
#00716:13
#00710:41
#00817:0013000013000000
#00812:0013000013000000
#0081b:00000013
#00816:00000013
#00917:0013000013000000
#00912:0013000013000000
#00916:00000013
#0091b:00000013
#01012:0013000013000000
#01014:0000000000130000
#01016:00000013
#01017:0013000013000000
#01019:0000000000130000
#0101b:00000013
#01112:1300001300000000
#01119:00000013130000000000000000000000
#01117:1300001300000000
#0111b:0000000013000013
#01114:00000000000000000000001313000000
#01116:0000000013000013
#01217:13000013
#01212:13000013
#0121b:00000013000000001300000000000000
#01216:00000013000000001300000000000000
#01316:1300000000000013
#01312:00000000001300000000000013000000
#01317:00000013
#01318:00131300
#0131b:0000000000130013
#0151b:0013000000000000
#01515:00000013000000000000130000000000
#01518:00000000130000001300001300000000
#01512:0000001300000013
#0161b:1300000013000013
#01614:0013001300000000
#01617:00130000
#01616:1300000013000013
#01612:00130013
#01717:0013000013000000
#0171b:0000131300001313
#01716:0000130000000013
#01712:0013
#01817:0013000000000000
#01812:0013000000000000
#01816:00000000000000000013000000000000
#0181b:00000000000000000013000000000000
#02112:0000131300001313
#02116:0013000013000000
#02117:0000130000000013
#0211b:0013
#0221b:0013
#02312:1300000000000013
#02314:00000013000000000000000000000000
#02316:0000001300000000
#02318:0000000000130000
#02315:00000013
#02319:00000013000000000000000000000000
#0231b:0000001300000013
#0231f:11
#02416:0013
#02418:0000000000130000
#02415:00000013
#02417:00000013000000000000000000001300
#02412:0000000000000013
#0241b:3300003300000000
#02517:0013000013000013
#02519:00130013
#02516:1300001300130000
#02514:00130000
#0251b:0000001300000000
#02512:0000000000000013
#0261b:0013
#02618:0000000000130000
#02615:00000013
#02616:00000013000000000000000000000000
#02612:3300003300000000
#02717:0000131300000000
#0271b:2300000000130000
#02716:0000000000130000
#02712:2300131300000000
#0281b:0013000000130013
#02817:0000001300001300
#02816:0013000000130013
#02812:0000001300001300
#0301b:00000013
#03016:00000013
#03117:13130000
#0311b:0013001300000013
#03119:00000000000000000000001300000000
#03112:23130000
#0311f:21
#03217:13
#03219:00000013000000000000000000000000
#03216:0000001300000000
#0321b:0000001300000000
#03212:13
#03214:00000013000000000000000000000000
#03210:41
#03419:00000013000000000000000000001300
#03416:13
#03414:00000013000000000000000000000000
#03417:0000001300000000
#03412:0000001300000000
#0341b:13
#03517:1300000000000013
#03519:00000013000000000000000000000000
#0351b:0000001313000000
#03512:1300000000000013
#03516:0000001313000000
#03514:00000000000000000000001300000000
#03617:13000013
#03612:13000013000000000000000013000000
#0361b:0000001300000000
#0371b:1300001300333333
#03712:00000013000000000000130013000000
#03713:0000000000000013
#03716:13
#03717:00000000000000000000001300000000
#03816:13000013
#03817:0013
#03819:0000000000130000
#0381b:00000013
#03818:0000000000000013
#03815:00000000000000000000000000000013
#03917:00000000130000000000001300000000
#0391b:0000000013000013
#03912:00000000130000000000001300000000
#03916:0013
#03918:23
#03910:41
#04017:13000013
#04019:00000013000000000000000000000000
#0401b:0000001300000000
#04012:00000013
#04015:0000000000000013
#04018:00000000000000000000000000000013
#04217:00000013
#04212:0000001300001300
#04216:13
#04214:00000013000000000000000000001300
#04219:0000000000000013
#04719:0000001300000000
#04717:00000013
#04716:13
#04712:0000003300001300
#0481b:0013000000000000
#04817:0013
#04816:0013000000001300
#04912:13000013
#04914:0013001300000013
#04916:00131300
#04918:0000000000130000
#0491b:00230000
#0491a:00000023
#05014:0013000000130000
#05016:13130013
#05018:0000001300000000
#05012:0013
#0501b:00230023
#00413:00000013000000000000000000001300
#00412:0000001300001300
#00418:13
#0041b:0013
#01912:0013000000000000
#01918:00000013000000000000130000000000
#01915:00000000130000001300001300000000
#0191b:0000001300000013
#02012:1300000013000013
#02019:0013001300000000
#02016:00130000
#02017:1300000013000013
#0201b:00130013
#02010:0041
#02917:13
#0291b:0013
#02912:13
#02916:0013
#03316:13130000
#03312:0013001300000013
#03314:00000000000000000000131300000000
#0331b:23130000
#04116:00000000130000000000001300000000
#04112:0000000013000013
#0411b:00000000130000000000001300000000
#04117:0013
#04115:23
#0431b:1300000000000013
#04319:00000013000000000000000000000000
#04312:0000001313000000
#04317:0000001313000000
#04316:1300000000000013
#04314:00000000000000000000001300000000
#04416:13000013
#0441b:13000013000000000000000013000000
#04412:0000001300000000
#04512:1300001300333333
#0451b:00000013000000000000130013000000
#0451a:0000000000000013
#04517:13
#04516:00000000000000000000001300000000
#04510:41
#04617:13
#04616:00000000000000001313000000000000
#04618:00000000000000000000001300000000
#04614:00000013
#04619:00000000000000000000000000130000
#04615:0000000000000013
#0461a:00000000000000000000000000000013
#0511b:13000013
#05119:0013001300000013
#05117:00131300
#05115:0000000000130000
#05112:00230000
#05113:00000023
#05219:0013000000130000
#05217:13130013
#05215:0000001300000000
#0521b:0000000013000023
#05212:00230023
#05216:0000000023000023
#05214:0000000000230000
#01412:00000000000000130000000000000000
#01417:00000000000000130000000000000000
#01410:41
#00615:23
#0061b:00230000
#00616:00230000
#00619:0023
#00614:0023
#00617:00000023
#00612:00000023
#00155:53
#00152:0023
#00258:63
#0025b:0023
#00355:53
#00352:0023
#00458:63
#0045b:0023
#00552:00230000
#00555:53
#0055b:00000023
#00558:0063
#0075b:53000053
#00752:0000005300000000
#00857:0053000000000000
#00852:0053000000000000
#00856:00000053
#00957:0053000000000000
#00952:0053000000000000
#0095b:00000053
#00956:00000053
#01057:0063000000000000
#01052:0063000000000000
#0105b:00000013
#01056:00000013
#01152:53
#0115b:0063
#01252:53000053
#0125b:00000053000000005300000000000000
#01256:00000053000000000000000000000000
#01257:00000053
#01356:5300000000000063
#01352:00000000002300000000000000000000
#0135b:0000000000000063
#01558:00000000530000000000005300000000
#01552:0000005300000000
#0155b:43
#01556:43
#0165b:0053
#01656:0000000000000053
#01752:0053
#01756:0000000000000053
#01857:0053000000000000
#01852:0053000000000000
#0185b:00000000000000000023000000000000
#01856:00000000000000000023000000000000
#01955:00000000630000000000006300000000
#0195b:0000006300000000
#01957:33
#01952:33
#02052:0063
#02057:0000000000000063
#0215b:0063
#02152:0000000000000053
#0225b:0053
#02352:1300000000000013
#02354:00000013000000000000000000000000
#02356:0000001300000000
#0235b:0000000000000053
#02457:00000023000000000000000000000000
#02452:0000000000000053
#02557:0023
#02556:23
#0255b:0000005300000000
#02552:0000000000000053
#02656:00000023000000000000000000000000
#02757:0000005300000013
#0275b:0000000000530000
#02756:0000000000530000
#02752:0000000000000013
#02957:53
#0295b:0023
#02952:53
#02956:0023
#03157:53530000
#0315b:0023002300000000
#03152:13
#0325b:0000006300000000
#03256:0000006300000000
#03252:00000013
#03257:00000013
#03356:63630000
#03352:0023002300000000
#0335b:13
#03552:13
#0355b:0013
#03652:13000053000000000000000000000000
#03657:53
#0365b:0000001300000000
#0375b:5300005300000000
#03752:00000053000000000000000000000000
#03757:00000000000000000000002300000000
#03856:53
#03956:0053
#03952:00000000000000000000005300000000
#03958:13
#0405b:0000001300000000
#04056:0000001300000000
#04252:0000001300000000
#04257:0000001300000000
#04157:0063
#0415b:00000000000000000000006300000000
#04155:13
#04357:0013
#04356:13
#04552:6300006300000000
#0455b:00000063000000000000000000000000
#04556:00000000000000000000002300000000
#04657:63
#04756:53
#04752:00000053
#04856:0053000000001300
#04857:0053
#0485b:00000013
#03457:0000005300000000
#03452:0000005300000000
#03456:00000013
#0345b:00000013
#01452:00000000000000230000000000000000
#01457:00000000000000230000000000000000
#04456:63
#0445b:13000063000000000000000000000000
#04452:0000001300000000
#001350:13
#001320:0053
#002350:23
#002381:13
#0023b1:0053
#003381:23
#003350:13
#003320:0053
#004350:23
#004381:13
#0043b1:0053
#005381:23
#005350:1323
#005320:00530000
#005381:0013
#0053b1:00000053
#006381:23
#0073b1:13
#007371:0000002300000000
#007320:0000001300000000
#007360:00000023
#0073b1:00000013
#008371:0033000000000000
#0083b1:0000002300000000
#008320:0013000000000000
#008360:0000002300000000
#008360:00000013
#009320:0033000000000000
#009360:0000002300000000
#009371:0013000000000000
#0093b1:0000002300000000
#0093b1:00000013
#010371:23
#009360:00000013
#010320:23
#010320:0013000000000000
#010360:0000002300000000
#010371:0013000000000000
#0103b1:0000002300000000
#011321:13
#011361:00000023000000000000000000000000
#0113b1:0013
#011371:00000000000000000000002300000000
#012321:1300002300000000
#012361:00000033000000000000000000000000
#0123b0:00000013000000000000000000000000
#012370:0000002300000000
#0123b0:0013
#012370:00000033
#0133b0:23
#012321:00000013
#013361:3300000000230000
#013321:00000000005300000000000000000000
#0133b1:0000000000000013
#014371:00000000000000530000000000000000
#0153b1:23
#013360:0000000000000013
#014320:00000000000000530000000000000000
#015360:23
#015380:00130000
#0153b0:0000002300000000
#015321:0000001300000000
#015351:0023
#015381:00000000000000000000001300000000
#0153b1:0000000000000023
#0163b1:0013
#016371:00000023
#016361:0000000000000013
#017321:0023000000000000
#017321:0013
#017361:00000023
#017361:0000000000000013
#018321:0033000000000000
#018361:00000000000000000053000000000000
#019321:23
#018370:0013000000000000
#0183b0:00000000000000000053000000000000
#019370:23
#019350:00130000
#019320:0000002300000000
#0193b1:0000001300000000
#019381:0023
#019351:00000000000000000000001300000000
#019321:0000000000000023
#020321:0013
#020361:00000023
#020371:0000000000000013
#0213b1:0023000000000000
#0213b1:0013
#021371:00000023
#021321:0000000000000013
#022361:0023
#0223b0:0013
#023370:23
#0233b0:0000000000000013
#0243b0:3300003323000000
#024370:00000033000000000000000000000000
#024320:0000000000000013
#025360:53
#025320:0023000000000000
#0253b0:0000001300230000
#025370:0053
#025320:0000000000000013
#026320:3300003323000000
#026360:00000033000000000000000000000000
#027370:0000001300000023
#0273b0:0000000000330000
#027361:0000000000130000
#027321:0000000000000023
#029371:13
#0293b1:0053
#030371:3333332300000000
#029320:13
#029360:0053
#030320:3333332300000000
#031370:13332300
#0313b0:0053005300000000
#031321:0013
#031341:00000000000000000000003300000000
#031361:0000000000000023
#0323b1:0000001300000000
#032371:00000023
#032360:0000001300000000
#032320:00000023
#033360:13332300
#033320:0053005300000000
#0333b1:0013
#033391:00000000000000000000003300000000
#033371:0000000000000023
#034321:0000001300000000
#034361:00000023
#034370:0000001300000000
#0343b0:00000023
#036370:13
#0363b0:00000023000000000000000000000000
#036321:00000013000000000000000000000000
#036361:0000002300000000
#0373b1:13
#037371:00000023000000000000000000000000
#037320:00000013000000000000000000000000
#037360:0000002300000000
#0373b1:0000001300333333
#037371:00000000000000000000005300000000
#0383b1:23
#038360:13
#038320:0023
#039360:0000000013000023
#039320:00000000000000000000003300000000
#040320:13
#040340:00000033000000000000000000000000
#040360:0000002300000000
#041370:0000000013000023
#0413b0:00000000000000000000003300000000
#0423b0:13
#042390:00000033000000000000000000000000
#042370:0000002300000000
#044360:13
#044320:00000023000000000000000000000000
#0443b1:00000013000000000000000000000000
#044371:0000002300000000
#045321:13
#045361:00000023000000000000000000000000
#0453b0:00000013000000000000000000000000
#045370:0000002300000000
#045321:0000001300333333
#045361:00000000000000000000005300000000
#046321:23
#046370:13
#0463b0:0023
#047360:13
#047320:0000003300003300
#048360:0033000000000000
#048320:0023
#048371:0013
#0483b1:00000023
