This file was generated by Ched 2.7.0.0.
#TITLE ""
#ARTIST ""
#DESIGNER ""
#DIFFICULTY 0
#PLAYLEVEL
#SONGID ""
#WAVE ""
#WAVEOFFSET 0
#JACKET ""
#REQUEST "ticks_per_beat 480"
#00002: 4
#BPM01: 128
#00008: 01
#TIL00: ""
#HISPEED 00
#MEASUREHS 00
#00118:13
#00112:00130000
#00915:0013
#0091b:00000013
#00918:0000001300000000
#01112:13000033330000000000000000000000
#0111b:00000000000000001300003333000000
#01318:00000013
#01315:0000000000000013
#0131b:13
#01317:00000000001300000000000000000000
#0151b:0013000000000000
#01512:0013
#01515:0000001300130000
#01518:00000000130000000000001300000000
#01618:0013001300000000
#01612:1313
#01615:00130000
#0161b:0000000000000013
#01715:0000001300000013
#01712:00130000
#01718:0013
#02315:00000013000000000000130000000000
#0231b:0000001300000000
#02318:00000013
#02312:0000000000000013
#0231f:11
#0241b:0013
#02418:0000000000130000
#02415:00000013
#02412:0000000000000013
#02518:00130000
#02515:00000013
#0251b:0000001300000000
#02512:0000000000000013
#02615:00000013000000000000130000000000
#02618:00000013
#02718:00130000
#02715:0000001300130000
#02712:23130000
#0271b:2300001300130000
#02815:0013000000000013
#02818:0000001300001300
#02812:0000000000130000
#03415:0000000000000013
#0341b:13
#03418:00000033000013000000000000000000
#03515:00000013000000001300000000000000
#0351b:0000001300000000
#03518:13000000000000000000001300000000
#03512:0000000000000013
#0371b:13
#03718:00000013000000000000000000001300
#03712:0000000000130000
#03715:00000013
#0381b:13000013
#03815:0000000000130013
#03818:00000000000000000000000000000013
#03918:00000000130000000000001300000000
#03912:00130000
#0391b:0013
#03915:23
#03910:41
#04912:13000023
#04915:0013001300000013
#04918:00231300
#0491b:0000000000130000
#05015:0013000000130000
#05018:13230023
#0501b:0000001300000000
#05012:0013
#00015:00000013
#00412:00000013
#00418:0000000000000013
#01012:0013000000000000
#0101b:0013
#01018:0000000000130000
#01015:00000013
#0121b:0013
#01218:00000013
#01212:13
#01215:00000013000000000000000000000000
#0291b:13
#02918:0013
#03012:00000013
#03112:00130000
#03118:00000000130000000000003300000000
#0311b:2313
#03115:23
#0311f:21
#03612:00000013
#03618:00000013000000000000000000000000
#0361b:13
#04415:00000013000000000000000013000000
#0441b:00000013
#04412:13
#01412:00000000000000130000000000000000
#01410:41
#00315:1300000000330000
#0031b:00130000
#00218:00000013
#00512:14
#00513:00000014000000000000000000000000
#00514:0000001400000000
#0051a:0014
#00519:00000000000000000000001400000000
#00518:0000000000000014
#0071b:13000013
#00718:0000001300000000
#00710:41
#00815:0000001300001300
#00818:0013
#01818:0013000000000000
#0181b:00000000000000000013000000000000
#01912:0013000000000000
#0191b:0013
#01918:0000001300130000
#01915:00000000130000000000001300000000
#02015:0013001300000000
#0201b:1313
#02018:00130000
#02012:0000000000000013
#02010:0041
#02118:0000001300000013
#0211b:00130000
#02115:0013
#0221b:0013
#03212:13
#03215:00000033000013000000000000000000
#03210:41
#0331b:00130000
#03315:00000000130000000000333300000000
#03312:2313
#03318:23
#04012:00000013
#04115:00000000130000000000001300000000
#0411b:00130000
#04112:0013
#04118:23
#04212:00000013
#04218:0000000000000013
#04318:00000013000000001300000000000000
#04312:0000001300000000
#04315:13000000000000000000001300000000
#0431b:0000000000000013
#04512:13
#04515:00000013000000000000000000001300
#0451b:0000000000130000
#04518:00000013
#04510:41
#04612:13
#0511b:13000023
#05118:0013001300000013
#05115:00231300
#05112:0000000000130000
#05215:13230023
#05218:0013000000230000
#05212:0000001300000023
#0521b:0023
#00612:24000024
#0061a:00240000
#00616:0024
#0095b:00000053
#01052:0063000000000000
#01055:00000013
#01152:53
#0115b:0063
#0125b:0053
#01258:00000053
#01252:53
#01255:00000053000000000000000000000000
#01355:0000000000000063
#0135b:53
#01357:00000000002300000000000000000000
#01558:00000000000000000000005300000000
#01555:13
#01652:0063
#0165b:0000000000000053
#01758:0053
#02355:00000013000000000000000000000000
#0235b:0000001300000000
#02352:0000000000000013
#02358:13
#02452:0000000000000053
#0255b:0000005300000000
#02552:0000000000000053
#02755:0000000000530000
#02752:0000000000000013
#0275b:0000000000530000
#02758:0000000000000013
#0295b:63
#02958:0023
#03558:13
#03555:0013
#0375b:53
#03758:00000053000000000000000000000000
#0385b:53
#04055:0000001300000000
#01452:00000000000000230000000000000000
#0075b:53000053
#00758:0000005300000000
#00855:00000053
#01858:0053000000000000
#0185b:00000000000000000023000000000000
#01958:13
#01955:00000000000000000000006300000000
#0205b:0053
#02052:0000000000000063
#02155:0063
#02158:0000000000000053
#0225b:0053
#02655:00000023000000000000000000000000
#0315b:0053
#03252:53000013
#03255:0000005300000000
#03352:0063
#0345b:63000013
#03458:0000006300000000
#0365b:5300001300000000
#03658:00000053000000000000000000000000
#03958:00000000000000000000005300000000
#0395b:0053
#04152:0063
#04155:00000000000000000000006300000000
#04258:0000001300000000
#04252:00000013
#04358:0013
#04355:13
#04455:00000063000000000000000000000000
#04452:6300001300000000
#04552:63
#04555:00000063000000000000000000000000
#04652:63
#0485b:00000013
#04855:00000013
#0013b0:0013
#001380:00000000000000000000003300002300
#002320:13
#002350:00000033000023000000000000000000
#003320:0013
#003350:00000000000000000000333300002300
#0043b0:13
#004380:00000033000023000000000000000000
#0073b0:13000033
#007380:0000003300000000
#008380:0023000000000000
#008350:00000013
#009320:0023000000000000
#0093b0:00000013
#010380:23
#010320:0013000000000000
#010350:0000002300000000
#011320:13000033330000000000000000000000
#011350:0000002300000000
#0113b0:00000000000000001300003333000000
#011380:0000000000000023
#012320:1300002300000000
#012350:00000033000000000000000000000000
#0123b0:0013
#012380:00000033
#0133b0:3300000000230000
#013370:00000000005300000000000000000000
#013350:0000000000000013
#014320:00000000000000530000000000000000
#015350:23
#015380:00000000000000000000001300000000
#0153b0:0000000000000023
#016320:0013
#016350:00000023
#0163b0:0000000000000013
#017380:0023000000000000
#017380:0013
#0173b0:00000023
#018380:0013000000000000
#0183b0:00000000000000000053000000000000
#019380:23
#019350:00000000000000000000001300000000
#019320:0000000000000023
#0203b0:0013
#020380:00000023
#020320:0000000000000013
#021350:0023000000000000
#021350:0013
#021320:00000023
#021380:0000000000000013
#0223b0:0033
#023380:23
#024320:0000000000000013
#025350:0023000000000000
#0253b0:0000001300000000
#025380:0000000000230000
#025320:0000000000000013
#026350:00000053000000000000000000000000
#026320:0023
#027350:0000000000130000
#027320:0000000000000023
#0273b1:0000000000130000
#027381:0000000000000023
#0293b1:13
#029381:0053
#0303b1:3333332300000000
#0313b1:0013
#031381:00000000000000000000003300002300
#032321:13000023
#032351:00000033000033000000000000000000
#033321:0013
#033351:00000000000000000000333300002300
#0343b1:13000023
#034381:00000033000033000000000000000000
#0363b1:1300002300000000
#036381:00000033000000000000000000000000
#0373b1:1300002300000000
#037381:00000033000000000000000000000000
#0383b1:13
#038381:0023
#0393b1:0000000013000023
#039381:00000000000000000000003300000000
#040321:13
#040351:00000033000023000000000000000000
#041321:0000000013000023
#041351:00000000000000000000003300000000
#0423b1:13
#042381:00000033000023000000000000000000
#044321:1300002300000000
#044351:00000033000000000000000000000000
#045321:1300002300000000
#045351:00000033000000000000000000000000
#046321:13
#046351:0023
#047351:13000033
#047321:0000003300000000
#048321:0033000000000000
#048351:00003323
#0473b0:13000033
#047380:0000003300000000
#048380:0033000000000000
#0483b0:00003323
