This file was generated by Ched 2.7.0.0.
#TITLE ""
#ARTIST ""
#DESIGNER ""
#DIFFICULTY 0
#PLAYLEVEL
#SONGID ""
#WAVE ""
#WAVEOFFSET 0
#JACKET ""
#REQUEST "ticks_per_beat 480"
#00002: 4
#BPM01: 128
#00008: 01
#TIL00: ""
#HISPEED 00
#MEASUREHS 00
#0001a:00000014
#00012:00000014
#0011b:1300000013000013
#00117:00000000130000000000001300000000
#00114:0013001300130013
#00116:1313
#00112:00130013
#00113:00000033000000000000003300000000
#0031b:00000000130000000000131300000000
#00317:0013
#00319:0000000000000013
#00314:0013001300130013
#00312:1313
#00316:00130013
#00315:00000033000000000000000000000000
#0051b:00000013000013001300000000001300
#00512:13000000000000130000001300000013
#00518:0000130000000000001300000000000000000000130000001300000000000000
#00515:00001300131300000013000000130000
#00815:00001300000000001300000000130000
#0081b:13130013
#00817:00000000000013000013000000000000
#00818:00000013000000000000000000001300
#00819:0000000000130000
#00812:13000000000000000000000000000013
#00912:00000000000013001300000000000013
#00917:0000000013000013
#0091b:1300001300001300
#00914:0013000000000000
#00916:00000013000000000000000013000000
#00918:00130000
#00919:0000000000130000
#01012:0000001313001300
#01015:0000130000130013
#0101b:00001313
#01018:00000000000000000013000000130013
#01017:13000013000013000000000000000000
#01019:0013000000000000
#01112:13000000000013000000001313000000
#01117:0000131313000000
#0111b:13000013130000001300000000001300
#01116:0000000000001313
#01216:13000000000013001300130014141400
#01212:1300000000130000
#01217:00000013000000000000000000000000
#0121b:00000013000000001300000000000000
#01317:0000000000131313
#01318:00000013130000000000000000000000
#0131b:1300001313130013
#01312:00130013
#01316:13
#0151b:1313000013000000
#01518:00000013000013000000000000000000
#01515:00130000
#01512:00000000000013000000131300000000
#01517:13000000000000000000131300000000
#01617:13130000
#01614:0013000000000000
#0161b:0000000013000013
#01616:0000000013131313
#01612:13130000
#01619:0000001300000000
#0171b:0013001300000013
#01717:0000130013131313
#01712:13131300
#01816:0013000000000000
#01812:0013000000000000
#01817:00000000000000000013000000000000
#0181b:00000000000000000013000000000000
#02112:0013001300000013
#02117:0000000000000013
#0211b:13131300
#02116:0000130013131300
#0221b:13000013000013001300000000000000
#02212:0000000000131300
#02217:33
#02216:0000000000330000
#02312:1400000000000013
#02312:0000000000000013
#02314:00000014000000000000000013000000
#02316:0000001400130000
#02318:00000013000000000000000000000000
#0231a:0000001300000000
#0231b:0000000000130000
#02319:00000013
#02317:0000000000000013
#0231f:11
#02416:0014
#02415:0000000000130000
#02418:00000013
#0241b:0000000000000013
#0241a:14000014000014000000000000000000
#02417:00000013000000000000000000000000
#02412:0000000000000013
#02519:00130000
#02518:00000013
#02514:00130000
#0251b:0000001300130013
#0251b:0000000000000013
#02515:0000000000000013
#02512:1313000000000000
#02517:0000001300000000
#02619:0000000000130000
#02617:00000013
#02616:00000013000000001400000000000000
#02612:14000014000014000000000013000000
#02614:0000000000130000
#02717:0000131300000013
#02712:23131313
#0271b:2300000000130000
#03115:00000013000000000000001300000000
#0311b:2300001300000013
#03112:23131313
#03118:0013000000130000
#03116:0000001300000013
#0311f:21
#03217:13
#03219:00001313000000000000000000000000
#03212:1313
#03214:00000013000000000000000000000000
#03216:00000000001313000000000000000000
#03215:00000000000000000000130000000013
#03218:00000013
#0321b:0000001300000013
#03210:41
#03516:1414141414141414
#0351b:00000013000000001300000000001300
#03512:13000000000013000000001300000000
#03616:14000000000000000000000000000013
#03612:14001414000000001300000013000000
#0361a:00000000001414000000000000000000
#03617:0000000013131313
#0361b:0000000000130000
#0371b:13000000001313000000000000000000
#03712:00001313000000000000130013000000
#03714:0000000013000013
#03715:13
#03719:0000000013000013
#03717:0000000000131300
#0381b:13001313
#03817:0000000000130000
#03818:00000013000013000000000000001300
#03815:00001300000000130000000000000013
#03816:13000013
#03812:0000130000130000
#04812:00000013
#0481b:0013
#04818:0013000000000000
#04912:1200001200001200
#04914:0012000012000012
#04916:0000120000120000
#0491b:0000230000132300
#05014:0000120000120000
#05016:1200001200001200
#05012:0012000012000000
#0501b:0000230000132313
#00416:00000013000000000000000013000000
#00412:0000001300000000
#00414:0000000000000013
#00419:0013001300130013
#00417:1313
#0041b:00130013
#0041a:00000033000000000000003300000000
#00615:26000000000000000000000000000013
#00618:0000000000000013
#0061b:00230000
#00616:00240000
#00619:0023
#00614:0024
#00617:00000023
#00612:00000024
#0461c:00000000000000000000001200000000
#04616:00130012
#0461a:00000000000013000000000000120000
#04614:0000000000000012
#04618:00000000000000000000000000000012
#04612:13
#04617:13000000000000001313000000000000
#0461b:00130000
#00219:0013001300130013
#0021b:1313
#00217:00130013
#00212:00000013000000000000000013000000
#00215:0000001300000000
#00218:00000033000000000000000000000000
#00712:1300001300001300
#00718:0013130000000013
#00715:00000013000000000000000000000013
#0071b:1300000000130000
#00719:0013
#00717:0000001300001300
#00714:0013
#00716:0000000000130000
#00710:41
#01412:1300000013000013
#0141b:00000013130013000000000013000000
#01416:00000000000000001313001313000000
#01417:1300000000000013
#01410:41
#01912:0013000013000000
#01915:00000013000013000000000000000000
#01918:00130000
#0191b:00000000000013000000131300000000
#01916:00000000000000000000131300000000
#02016:13130000
#02019:0013000000000000
#02012:0000000013000013
#02017:0000000013131313
#0201b:13130000
#02014:0000001300000000
#02010:0041
#02812:13131313
#02817:0000001300000013
#0281b:0000000000130000
#02819:00000013
#02912:13
#0291b:13
#02918:0000121213131414
#02916:0000121200000000
#02915:0000000013130000
#02914:0000000000001414
#03018:1626162600001300
#03012:2616261600000000
#03015:00000013
#03318:00000013000000000000001300000000
#03312:2300001300000013
#0331b:23131313
#03315:0013000000130000
#03317:0000001300000013
#03416:13
#03414:00001313000000000000000000000000
#0341b:13000000000000001300000000000013
#03419:00000013000000000000000000000000
#03417:00000000001313000000000000000000
#03418:00000000000000000000130000130000
#03415:00000013
#03412:0000001300000013
#04016:13
#04015:00000013000000000000000013000000
#0401a:13
#04019:00000013000000000000000000000000
#04012:0013000013000013
#0401b:00000000001300001300000000000000
#04018:00000000000013000000130000000013
#04014:0000001300000000
#03912:2314000013140000
#03916:00000014000013000000001400001300
#03917:0013
#0391b:23
#03910:41
#04217:13
#04218:00000013000000000000000013000000
#04213:13
#04214:00000013000000000000000000000000
#0421b:0013000013000013
#04212:00000000001300001300000000130000
#04215:00000000000013000000130000000013
#04219:0000001300000000
#0411a:0014000000140000
#04116:00000014000000001300001400000000
#04117:0000001300000013
#0411b:2313
#04112:23
#04316:1414141414141414
#04312:00000013000000001300000000001300
#0431b:13000000000013000000001300000000
#04416:1400000013131313
#0441a:14001414000000000000000000000000
#04412:00000000001414000000130000000000
#0441b:00001313
#04417:00000000000000000000000000000013
#04512:13000000001313000000000000000000
#0451b:00001313000000000000130013000000
#04518:13
#04519:0000000013000013
#04514:0000000013000013
#04516:0000000000131300
#04510:41
#0471b:13000013
#04718:0000001300000000
#05118:1200001200001200
#0511a:0012000012000012
#0511c:0000120000120000
#05112:1300230000132300
#0521c:1200001200000022
#05218:0012000000220000
#0521a:00120022
#05212:00230023
#05216:0022
#00154:0053005300530053
#00156:2323
#00152:00230023
#01152:53
#0115b:0063
#01252:53
#01257:00000053000000000000000000000000
#01256:4300004300000000
#0125b:00000043000000000000000000000000
#01555:00530000
#01552:00000000000053000000005300000000
#01557:43000000000000000000005300000000
#0155b:43
#0165b:0053
#01656:0000000000230053
#01752:2353
#01757:0000000000230053
#01856:0053000000000000
#01852:0053000000000000
#0185b:00000000000000000023000000000000
#01857:00000000000000000023000000000000
#02152:0000000000000053
#0215b:2363
#02156:0000000000230000
#0225b:0053
#0245b:0000000000000053
#02457:00000023000000000000000000000000
#03552:13
#0355b:0013
#03652:14000054000000000000000000000000
#03656:54
#0365a:0000001400000000
#0375b:53
#03752:00000053000000000000000000000000
#04852:00000013
#0485b:0053
#04857:00000013
#04858:0053000000000000
#01956:33000000000000000000006300000000
#01952:33
#01958:00630000
#0195b:00000000000063000000006300000000
#00259:0053005300530053
#0025b:2323
#00257:00230023
#00255:0000005300000000
#00252:00000013
#00354:0063006300630063
#00352:2323
#00356:00230023
#00459:0063006300630063
#00457:2323
#0045b:00230023
#00655:16
#00656:00340000
#00654:0034
#00652:00000034
#01052:00000013
#0095b:00000013
#00952:0013
#01356:53
#01352:00230000
#01452:53
#02052:0063
#02057:0000000000230063
#02352:3400000000000063
#02354:00000034000000000000000000000000
#02356:0000003400000000
#02357:0000000000000043
#0255b:0000000000000053
#02557:0000005300000000
#02656:00000023000000000000000000000000
#02657:00000053
#02752:13131313
#0275b:1300000000530000
#02757:0000005300000053
#02852:13131313
#03058:00000053
#0315b:13
#03152:13
#0335b:13
#03352:13
#03257:13
#03254:00000013000000000000000000000000
#0325b:0000001300000000
#03456:13
#03459:00000013000000000000000000000000
#03452:0000001300000000
#04056:13
#04059:00000013000000000000000000000000
#04054:0000001300000000
#0395b:13
#03952:13
#04257:13
#04254:00000013000000000000000000000000
#04259:0000001300000000
#04152:13
#0415b:13
#04352:0013
#0435b:13
#04456:64
#0445a:14000064000000000000000000000000
#04452:0000001400000000
#04552:63
#0455b:00000063000000000000000000000000
#04652:53
#04656:00230000
#0475b:53000053
#04758:0000005300000000
#0495b:00130013
#0505b:00130013
#05252:00130013
#05152:00130013
#001360:1353
#001340:0053003300330053
#001330:00000033000000000000003300000000
#001320:00530053
#002360:23
#0023b1:1353
#002391:0053003300330033
#002381:00000033000000000000000000000000
#002371:00530033
#0033b1:23
#002350:0000001300000000
#002320:0000000000230000
#003320:1353
#003340:0053003300330033
#003350:00000033000000000000000000000000
#003360:00530033
#004320:23
#004371:1353
#004391:0053003300330053
#0043a1:00000033000000000000003300000000
#0043b1:00530053
#005371:23
#008321:0000132300000000
#011321:13
#011371:00000023000000000000000000000000
#0113b1:0013
#011361:00000000000000000000002300000000
#012321:1300002300000000
#012371:00000033000000000000000000000000
#013361:1323
#013321:00530000
#014321:13
#014361:0000002300000000
#015351:00132300
#015321:0000003300000000
#015321:00000000000000000000001300000000
#015361:0000000000000023
#015370:00000000000000000000001300000000
#0153b0:0000000000000023
#0163b0:00001323
#016360:0000000000530000
#016360:0000000000000013
#017320:53
#017360:0023000000000000
#017320:00001323
#017370:0000000000530000
#017370:0000000000000013
#018320:0033000000000000
#018370:00000000000000000053000000000000
#019320:23
#018361:0013000000000000
#0183b1:00000000000000000053000000000000
#019361:23
#019381:00132300
#0193b1:0000003300000000
#0193b1:00000000000000000000001300000000
#019371:0000000000000023
#019360:00000000000000000000001300000000
#019320:0000000000000023
#020320:00001323
#020370:0000000000530000
#020370:0000000000000013
#0213b0:53
#021370:0023000000000000
#0213b0:00001323
#021360:0000000000530000
#021320:0000000000000013
#022370:33005333000033002300000000000000
#0223b1:0013
#022361:0000000000333300
#023361:23
#023321:0000000000000013
#024371:00000053000000000000000000000000
#024321:0023
#0243b1:0000000000000013
#025361:0023000000000000
#025371:0000001300000000
#025321:0000000000230000
#0253b1:0000000000000013
#026361:00000053000000000000000000000000
#0263b1:0023
#026371:00000013
#0273b1:23
#027371:0000001300000033
#0273b1:0000000000330000
#0283b1:0023000000000000
#030381:00000013
#0313b1:23
#036361:14
#0363a1:00000024000000000000000000000000
#036320:00000014000000000000000000000000
#036360:0000002400000000
#0373b0:13
#037360:00000023000000000000000000000000
#037321:00000013000000000000000000000000
#037371:0000002300000000
#0393a1:0000142400000000
#0393a1:0000000000001424
#041321:0000142400000000
#041321:0000000000001424
#044361:14
#044321:00000024000000000000000000000000
#0443a0:00000014000000000000000000000000
#044360:0000002400000000
#045320:13
#045370:00000023000000000000000000000000
#0453b1:00000013000000000000000000000000
#045361:0000002300000000
#046321:1323
#046361:00530000
#047321:1232
#047361:00320032
#048321:3222
#048361:00320000
#0473b0:13000033
#047380:0000003300000000
#048380:0033000000000000
#0483b0:0033
#048370:00000023
