This file was generated by Ched 2.7.0.0.
#TITLE ""
#ARTIST ""
#DESIGNER ""
#DIFFICULTY 0
#PLAYLEVEL
#SONGID ""
#WAVE ""
#WAVEOFFSET 0
#JACKET ""
#REQUEST "ticks_per_beat 480"
#00002: 4
#BPM01: 128
#00008: 01
#TIL00: ""
#HISPEED 00
#MEASUREHS 00
#0011a:14
#00114:00140000
#00118:0014
#00112:00000014
#00218:14
#00214:00140000
#00312:14
#00318:00140000
#00314:0014
#0031a:00000014
#00414:14
#00418:00140000
#0051a:14
#00514:00140000
#00518:0014
#00512:00000014
#01118:14
#0111a:0014
#01314:14
#01312:0014
#0151a:14
#01514:0014
#01714:14
#01718:0014
#01812:14
#01814:0014
#01918:0014
#02118:14
#02114:0014
#0221a:14
#02218:0014
#02314:0014
#02318:00000014
#0231f:11
#02412:14
#0251a:14
#02614:14
#0271a:1414
#02714:00140014
#02818:1414
#02812:00140014
#02918:14
#03118:00140000
#03114:0014
#0311a:00000014
#03112:24
#0311f:21
#03212:14
#03214:00000034000034000000000000000000
#03210:41
#03314:00140000
#03318:0014
#03312:00000014
#0331a:24
#0341a:14
#03418:00000034000034000000000000000000
#03512:14
#03518:00140000
#03514:0014
#0351a:00000014
#03614:1414
#0361a:00140000
#03618:00000014
#03712:14
#0381a:14
#03918:00140000
#03913:0014
#03919:00000014
#03912:24
#03910:41
#04014:14
#04012:00000034000034000000000000000000
#04312:14
#04318:00140000
#04314:0014
#0431a:00000014
#04414:1414
#0441a:00140000
#04418:00000014
#04512:14
#04510:41
#0461a:14
#04114:00140000
#04119:0014
#04113:00000014
#0411a:24
#04218:14
#0421a:00000034000034000000000000000000
#0491a:14
#04914:00140000
#04918:0014
#04912:00000014
#0501a:14
#05014:00140000
#05018:0014
#05012:00000014
#0511a:14
#05114:00140000
#05118:0014
#05112:00000014
#0521a:14
#05214:0000140000240024
#05218:00002424
#00619:24
#00617:00240000
#00615:0024
#00613:00000024
#00710:41
#01410:41
#02010:0041
#01158:54
#0115a:0054
#01354:64
#01352:0064
#01852:54
#01854:0054
#0225a:64
#02258:0064
#02452:54
#0255a:64
#02654:64
#02958:54
#03152:14
#03252:54
#0335a:14
#0345a:64
#03752:54
#0385a:64
#04054:64
#04552:54
#0465a:64
#03952:14
#04258:54
#0415a:14
#0023a0:00001424
#004320:00001424
#0073a0:14
#007380:0034
#0083a0:34
#008380:0024
#009320:14
#009340:0034
#010320:34
#010340:0024
#011380:14
#0113a0:0034
#012380:3424
#013340:14
#013320:0034
#014340:3424
#016380:14
#0163a0:0024
#018320:14
#018340:0034
#019320:24
#020340:14
#020320:0024
#0223a0:14
#022380:0034
#0233a0:24
#024320:14
#024340:0024
#0253a0:14
#025380:0024
#026340:14
#026320:0024
#029380:14
#0303a0:3434342400000000
#032320:14
#032340:00000034000034000000000024000000
#0343a0:14
#034380:00000034000034000000000024000000
#037320:14
#037340:0024
#0383a0:14
#038380:0024
#040340:14
#040320:00000034000034000000000024000000
#042380:14
#0423a0:00000034000034000000000024000000
#045320:14
#045340:0024
#0463a0:14
#046380:0024
#047320:14000034
#047340:0000003400000000
#048340:0034000000000000
#048320:00003424
