This file was generated by Ched 2.7.0.0.
#TITLE ""
#ARTIST ""
#DESIGNER ""
#DIFFICULTY 0
#PLAYLEVEL
#SONGID ""
#WAVE ""
#WAVEOFFSET 0
#JACKET ""
#REQUEST "ticks_per_beat 480"
#00002: 4
#BPM01: 130
#00008: 01
#TIL00: ""
#HISPEED 00
#MEASUREHS 00
#00618:14
#00214:14
#0011a:14
#00512:14
#00714:14
#0081a:14
#00912:14
#00910:41
#01018:14
#0131a:14
#01414:14
#02518:2616
#02510:41
#02712:1616
#02912:0016
#02918:26
#03112:16
#03118:0016
#03718:14
#03812:14
#0391a:14
#04014:14
#0411a:14
#04110:41
#04212:14
#04318:14
#04414:14
#0451a:14
#04612:14
#04718:14
#06212:2616
#0621f:21
#06318:1616
#06310:41
#06712:1616
#06618:2616
#04814:14
#0331a:14
#03310:41
#03414:14
#03518:14
#03612:14
#06412:16
#06418:0016
#06818:16
#06812:0016
#07012:16
#07018:0016
#07218:14
#07214:0014
#02318:14
#02414:14
#0521f:11
#0581a:34
#05719:34
#05412:34
#05313:34
#01710:41
#0033a0:14
#0043a0:24
#011320:14
#012320:24
#015380:14
#016380:24
#017340:14
#018340:24
#0193a0:14
#0203a0:24
#021320:14
#022320:24
#026380:1626
#028320:1626
#030380:1626
#032320:1626
#049380:14
#050380:34
#051380:24
#052340:14
#053330:34
#054320:34
#055320:24
#056380:14
#057390:34
#0583a0:34
#0593a0:24
#065320:1626
#069380:1626
#071320:1626
#073380:14003434
#074380:0024
