This file was generated by Ched 2.7.0.0.
#TITLE ""
#ARTIST ""
#DESIGNER ""
#DIFFICULTY 0
#PLAYLEVEL
#SONGID ""
#WAVE ""
#WAVEOFFSET 0
#JACKET ""
#REQUEST "ticks_per_beat 480"
#00002: 4
#BPM01: 130
#00008: 01
#TIL00: ""
#HISPEED 00
#MEASUREHS 00
#00017:0000000000001313
#00012:0000000000001313
#0011b:0000000000001313
#00116:0000000000001313
#00217:0000000000001313
#00212:0000000000001313
#00317:0000000000001313
#00316:00000000001300000000000000000000
#00312:0000000000000013
#00416:0000001300000013
#00412:0013
#0041b:0000000000001313
#00417:0013
#00517:0000000000001313
#00512:0000000000000013
#00616:0000000000001313
#0061b:0000000000000013
#00712:0000000000001313
#00717:0000000000000013
#0161b:0000000000130000
#01618:00000013
#01615:0000000000000013
#01712:13000013
#0171b:0000131300000013
#01715:0000001300000013
#01718:1300000000130000
#01710:41
#0201b:0000000000130000
#02018:00130013
#02015:0013001300000013
#0211b:1300000013130000
#02117:0000130000000013
#02112:13131313
#02219:13
#0221b:0013000000130000
#02217:0000001300000000
#02218:00000013
#02215:0000000000000013
#02212:13131313
#02315:0013000000130000
#02318:00130013
#0231b:0000001300000013
#02312:1300001313000013
#02416:0013000013000024
#0241b:0013000013002300
#02412:0000330000230000
#02417:00330000
#0251b:2300131300000013
#02512:2300000000130000
#02514:00001313
#02516:0000000000000013
#02510:41
#02617:0013000000000000
#02619:13130000
#0261b:0000001300001300
#02612:0000000000130000
#02618:0000000000000013
#02616:0000001300000000
#02614:0013
#02717:0000131300001300
#0271b:0000000033000013
#02715:13
#02712:0000131300001300
#02716:0000000033000013
#02815:00130000
#0281b:0000000000230000
#02812:3300002300002300
#02816:0000000000000024
#02818:0000002300000000
#02817:33
#0331a:12
#03318:0012000000000000
#03316:00120000
#03314:0000001200000000
#03312:0012
#03317:00000012
#0331b:0000000000000012
#03310:41
#03417:12
#03415:00121212
#03419:0000001200120000
#03412:0000000000000012
#03512:12
#03514:00121200
#0351a:0000001200000012
#03517:12001212
#03616:0000120000120000
#0361a:00120012
#03614:0012001200000000
#03618:0012001200000000
#03814:00120000
#03816:0000001200000012
#03818:0012
#0381a:0000000000120000
#03817:12
#0381c:0000000000000012
#03914:1200001200000022
#03918:0012000000120000
#03916:00120012
#0391a:0012
#0391c:0000000000000022
#0411b:0000130000000013
#04112:0013
#04115:0000000000130000
#04118:00000013
#04116:00130000
#04110:41
#04218:13001313
#04215:0013000000130000
#0421b:0000001300000013
#04312:13
#04317:13
#04318:0000000000130013
#04315:00000013
#04412:0013000013000000
#04415:00130000
#0441b:0013
#04418:0000001300001200
#04416:0000000000000012
#04718:00000012
#04716:1300000000000012
#0471b:13
#04917:13000013
#0491b:00130000
#04919:0013
#04912:13
#0521a:12
#05216:0000001200001200
#0521c:0000001200000000
#05214:0000000000120000
#05218:0000000000000012
#0521f:11
#05318:0012000000120000
#05316:00120012
#05314:0000001200000012
#0531a:12
#0541a:12
#0541c:0000001200000000
#05418:0000000000120000
#05416:0000001200001200
#05414:0000000000000012
#05512:12
#05514:0012000000000000
#05516:00120000
#05518:0000001200000000
#05818:0000000000120012
#05814:12000012
#05816:0000122200000000
#0581c:0000002200000000
#0611b:0000000000130000
#06118:00000013
#06115:0000000000000013
#06217:0000001300000000
#0621b:2300000000130000
#06219:00000013
#06212:23232323
#0621f:21
#06317:0013000000130000
#06319:00130013
#0631b:0000000000000013
#06312:23232323
#06310:41
#06417:1300000000130000
#06419:00000013
#06412:23232323
#06517:0013001300002300
#0651b:0000130000230023
#06512:23232323
#07017:0000132300000000
#07015:0000000000130013
#07018:00000013
#0701b:2300000000000013
#07012:0000132300000000
#07016:23
#07117:0013001300000000
#0711b:0000130000230000
#07118:00000023
#07115:0000000000000023
#07112:0023002300000000
#07116:00230000
#00816:0000000000001313
#0081b:0000000000001313
#00912:0000000000001313
#00917:0000000000001313
#00910:41
#01016:0000000000001313
#0101b:0000000000001313
#01116:0000000000001313
#01117:00000000001300000000000000000000
#0111b:0000000000000013
#01212:0000000000001313
#01217:0000000000000013
#01316:0000000000001313
#0131b:0000000000000013
#01417:0000000000001313
#01412:0000000000000013
#0151b:0000000000001313
#01516:0000000000000013
#01812:0000000000130000
#01815:00130013
#01818:0013001300000013
#0191b:13000013
#01912:0000131300000013
#01918:0000001300000013
#01915:1300000000130000
#02912:2300131300000013
#0291b:2300000000130000
#02919:00001313
#02917:0000000000000013
#03016:0013000000000000
#03014:13130000
#03012:0000001300001300
#0301b:0000000000130000
#03015:0000000000000013
#03017:0000001300000000
#03019:0013
#03116:0000131300001300
#03112:0000000033000013
#03118:13
#0311b:0000131300001300
#03117:0000000033000013
#03218:0000130000232300
#03215:0000002300000000
#0321b:3300002300000000
#03212:0000000000232300
#03216:33
#0371a:12
#03718:0012000000000000
#03716:00120000
#03714:0000001200000000
#03712:0012
#03717:00000012
#0371b:0000000000000012
#04013:0012120000000000
#04015:0000001200000000
#04018:0012120012000000
#0401a:0000001200000000
#04512:0000130000000013
#0451b:0013
#04518:0000000000130000
#04515:00000013
#04517:00130000
#0451a:22
#04615:13001313
#04618:0013000000130000
#04612:0000001300000013
#05019:1313
#0501b:00130000
#05017:00000013
#05116:1300000000000012
#0511a:0000000000120000
#05118:00000012
#05614:12
#05618:0000001200001200
#05612:0000001200000000
#0561a:0000000000120000
#05616:0000000000000012
#05714:12
#05716:0012000000120000
#05718:00120012
#0571a:0000001200000012
#0591c:0012000000000000
#05916:0012000000000000
#0591a:00120000
#05914:00120000
#05912:0000001200000000
#06616:0000001300000000
#06612:2300000000130000
#06614:00000013
#0661b:23232323
#06716:0013000000130000
#06714:00130013
#06712:0000000000000013
#0671b:23232323
#06816:1300000000130000
#06814:00000013
#06812:0000002300000000
#0681b:23232323
#06916:0013001300002300
#06912:0000130000230023
#0691b:23232323
#07216:0000132300000000
#07218:0000000000130013
#07215:00000013
#07212:2300000000000013
#0721b:0000132300000000
#07217:23
#07316:0013001300000000
#07312:0000130000130000
#0731b:0013001300130000
#07317:00130000
#07318:00000013
#07315:00000013
#00252:0000000000000053
#00356:00000000002300000000000000000000
#00357:0000000000000053
#0105b:0000000000000063
#01157:00000000002300000000000000000000
#0115b:0000000000000013
#01156:0000000000000013
#01452:0000000000000053
#02352:0000000000000053
#0245b:0053000000000000
#02456:0053000000000000
#0255b:1300005300000000
#02556:0000000000000053
#02552:53
#0265b:0000005300000000
#02757:0000005300000000
#02752:0000005300000000
#0275b:0000000000000053
#02756:0000000000000053
#02952:1300006300000000
#02957:0000000000000063
#0295b:63
#03052:0000006300000000
#03156:0000006300000000
#03152:0000000000000063
#0315b:0000006300000000
#03157:0000000000000063
#0415b:00530000
#04357:53
#04352:53
#04358:0000000000000053
#04552:00630000
#0475b:63
#04756:63
#04957:53000023
#04959:0053
#0495b:00230000
#05059:5353
#0505b:00230000
#05057:00000023
#0625b:13
#0645b:0000001300000000
#06457:53
#06856:63
#06852:0000001300000000
#06652:13
#07052:0000001300000000
#07057:0000001300000000
#0725b:0000001300000000
#07256:0000001300000000
#07355:00000053
#07358:00000053
#01758:13
#0175b:0000001300000000
#01755:0000000000000013
#01955:13
#01952:0000001300000000
#01958:0000000000000013
#02257:0000001300000000
#002320:0000000000000013
#003360:00000000005300000000000000000000
#003320:00000023
#003370:0000000000000013
#0043b0:0000002300000000
#0103b0:0000000000000013
#011370:00000000005300000000000000000000
#0113b0:00000023
#014320:0000000000000013
#015360:00000023
#023320:0000000000000013
#024360:0033000000000000
#024320:0000332300000000
#0243b1:0013000000000000
#024371:0000332300000000
#025321:13
#025361:0000002300000000
#0253b0:0000001300000000
#025370:0000000000230000
#025360:0000000000000013
#026320:0023000000000000
#0263b0:0000001300000000
#026370:0000000000230000
#027320:0000001300000000
#027360:0000000033230000
#027371:0000001300000000
#0273b1:0000000033230000
#0273b1:0000000000000013
#028371:3323000000000000
#027360:0000000000000013
#028320:3323000000000000
#0293b0:13
#029370:0000002300000000
#029321:0000001300000000
#029361:0000000000230000
#029371:0000000000000013
#0303b1:0023000000000000
#030321:0000001300000000
#030361:0000000000230000
#0313b1:0000001300000000
#031371:0000000033230000
#031360:0000001300000000
#031320:0000000033230000
#031320:0000000000000013
#032360:3323000000000000
#031371:0000000000000013
#0323b1:3323000000000000
#040331:00001232
#041331:22
#040380:00000012
#041380:22
#0413b0:00130000
#041370:0023
#043320:13
#043360:0000332300000000
#043371:13
#0433b1:0000332300000000
#043381:0000000000000013
#0443b1:0023000000000000
#045321:00130000
#045361:0023
#0473b1:13
#047371:0023
#047360:13
#047320:0023
#049370:13000053
#0493b0:00530000
#049390:0053
#050390:5353
#0503b0:00530000
#050370:00000053
#0513b0:23
#059380:0000001200000000
#060380:52
#061340:002a
#062370:0000000000000013
#063370:23
#0633b0:0000001323000000
#064370:13
#0643b0:0000332300000000
#0643b0:0000000000000013
#0653b0:23
#066360:0000000000000013
#067360:23
#067320:0000001323000000
#068360:13
#068320:0000332300000000
#068320:0000000000000013
#069320:23
#073350:00000013
#074320:0023
#073381:00000013
#0743b1:0023
