This file was generated by Ched 2.7.0.0.
#TITLE ""
#ARTIST ""
#DESIGNER ""
#DIFFICULTY 0
#PLAYLEVEL
#SONGID ""
#WAVE ""
#WAVEOFFSET 0
#JACKET ""
#REQUEST "ticks_per_beat 480"
#00002: 4
#BPM01: 130
#00008: 01
#TIL00: ""
#HISPEED 00
#MEASUREHS 00
#00018:0000000000000013
#00012:00000013
#0011b:00000013
#00115:0000000000000013
#00312:0000000000000013
#0031b:00000000001300000000000000000000
#00415:00000013
#00418:0000000013000013
#00518:00000013
#00512:0000000000000013
#00615:00000013
#0061b:0000000000000013
#00718:00000013
#00712:0000000000000013
#0161b:0000000000130000
#01615:00000013
#01618:0000000000000013
#0171b:0000130000000013
#01718:0000000000130000
#01715:0000001300001300
#01712:13
#01710:41
#0201b:0000000000130000
#02015:00000013
#02018:0000000000000013
#02112:13
#0211b:0000000000130000
#02115:0000000000000013
#02118:00000013
#02218:13130013
#0221b:0013000000130000
#02215:0000001300000013
#02318:0013000000001300
#02315:0000130000130000
#0231b:0000001300000013
#02312:1313
#02417:0013000000000000
#0241b:00331300
#02415:00001323
#02418:0000000000230023
#0251b:0000131300000000
#02515:00000013
#02518:0000000000000013
#02512:23
#02510:41
#0261b:0013000000000000
#02615:00130000
#02618:0000001300000013
#02612:13000013
#02818:0000130000230023
#02815:00000023
#02812:0000002300000000
#0281b:3300002300000000
#0331b:1313
#03318:0013000000000013
#03315:00130013
#03312:0000001300000000
#03310:41
#03415:13131313
#03418:0000001300130000
#03412:0000000000000013
#03518:0000130013000013
#03515:0000001300001300
#03512:13
#03615:0000000000130000
#0361b:00000013
#03612:0013001300000000
#03618:00130000
#0411b:0000130000000013
#04115:0000000000130000
#04118:00000013
#04110:41
#04218:1300001300000013
#04215:0013000013001300
#04212:0000000000130000
#04318:0000000000130013
#04315:13000013
#04312:00330000
#04415:00130000
#0441b:0013
#04418:0000001300000000
#04412:0013
#04716:00000012
#04718:0000000000000012
#05214:1200000000120000
#0521a:0000001200000000
#05218:00000012
#05216:0000000000000012
#0521f:11
#0531a:1200000000120000
#05316:0012000000001200
#05318:0000120000000012
#05314:0000001200000000
#05414:1200000000120000
#0541a:0000001200000000
#05418:00000012
#05416:0000001200000012
#0551a:12
#05516:0012000000000000
#05518:00120000
#05514:0000001200000000
#05814:0000000000120012
#05818:0000002200001200
#05816:00120000
#0581a:12
#0611b:0000000000130000
#06115:00000013
#06118:0000000000000013
#0621b:0000001300000000
#06215:0000001300130000
#06218:00000013
#06212:2300000000000013
#0621f:21
#06318:0000130000000013
#06315:3300001300001300
#06312:0033
#06310:41
#06415:0000000000130013
#06418:00000013
#0641b:13
#06518:0000130000230023
#06515:0000001300002300
#07018:0000132300001300
#07015:0000000000130013
#07012:2300132300000000
#0701b:23
#00212:00000013
#00218:0000000000000013
#00815:0000000000000013
#0081b:00000013
#00912:00000013
#00918:0000000000000013
#00910:41
#01215:00000013
#0121b:0000000000000013
#0101b:00000013
#01015:0000000000000013
#01112:00000000001300000000000000000000
#01118:0000000000000013
#01312:0000000000000013
#01318:00000013
#01415:00000013
#0141b:0000000000000013
#01512:0000000000000013
#02715:1300001300001300
#02718:0000130000000013
#02712:0033
#03215:00130023
#03212:3300002300000000
#0321b:0000002300000000
#03218:0000000000230000
#0381b:0000000000130013
#03818:1313
#03812:00130000
#03815:0000001300000000
#0511a:0000000000120000
#05116:00000012
#05118:0000000000000012
#05919:0012000000000000
#05917:00120000
#07218:0000000000130013
#07215:0000132300001300
#0721b:2300132300000000
#07212:23
#07312:0013000000000000
#07314:0000130000131300
#07316:0000001300000000
#07317:0013000000000000
#07319:0000130000131300
#0731b:0000001300000000
#01812:0000000000130000
#01818:00000013
#01815:0000000000000013
#01912:0000130000000013
#01915:0000000000130000
#01918:0000001300001300
#0191b:13
#02912:0000131300000000
#02918:00000013
#02915:0000000000000013
#0291b:23
#03012:0013000000000000
#03018:00130000
#03015:0000001300000013
#0301b:13000013
#03118:1300001300001300
#03115:0000130000000013
#0311b:0033
#03712:1313
#03715:0013000000000013
#03718:00130013
#0371b:0000001300000000
#03915:1300130000130000
#03918:0013000013000000
#03912:0000001300001300
#0391b:0000000000000023
#04012:0013130000000000
#04018:0013130000000000
#0401b:0000001300000000
#04015:0000001300000000
#04512:0000130000000013
#04518:0000000000130000
#04515:00000013
#04615:1300001300000013
#04618:0013000013001300
#0461b:0000000000130000
#04912:14
#04913:00140014
#04914:0014
#05012:14
#05013:00140014
#05014:0014
#0561a:1200000000120000
#05614:0000001200000000
#05616:00000012
#05618:0000000000000012
#05714:1200000000120000
#05718:0012000000001200
#05716:0000120000000012
#0571a:0000001200000000
#06612:0000001300000000
#06618:0000001300130000
#06615:00000013
#0661b:2300000000000013
#06715:0000130000000013
#06718:3300001300001300
#0671b:0033
#06818:0000000000130013
#06815:0000332300001300
#06812:13
#06915:0000130000230023
#06918:0000001300002300
#0711b:0013000000000000
#07119:00130000
#07117:0000001300000000
#07116:0023000000000000
#07112:0000002300000000
#07114:00230000
#07118:0000000000230023
#07115:00000023
#00258:0000000000000053
#0035b:00000000002300000000000000000000
#00352:0000000000000053
#01055:0000000000000063
#01152:00000000002300000000000000000000
#01158:0000000000000013
#0145b:0000000000000053
#0235b:0000000000000063
#0255b:0000005300000000
#02552:13
#02658:0000005300000000
#0415b:00530000
#04358:0000000000000053
#04355:53
#06252:1300000000000053
#07052:0000001300000000
#07058:0000001300000000
#01752:13
#01755:0000001300000000
#0175b:0000000000000013
#0195b:13
#01958:0000001300000000
#01952:0000000000000013
#02255:0000001300000000
#02457:0023000000000000
#02755:0000006300000000
#02758:0000000000000053
#02952:0000006300000000
#0295b:13
#03055:0000006300000000
#03158:0000005300000000
#03155:0000000000000063
#04552:00630000
#04952:24
#04954:0024
#04953:00540054
#05052:24
#05053:00540054
#05054:0024
#06355:0000005300000000
#0645b:53
#06458:0000001300000000
#06455:0000000000000053
#0665b:1300000000000063
#06758:0000006300000000
#06852:63
#06858:0000000000000063
#06855:0000001300000000
#0725b:0000001300000000
#07255:0000001300000000
#07354:00000053
#07359:00000063
#002380:0000000000000013
#0033b0:00000000005300000000000000000000
#003380:00000023
#003320:0000000000000013
#004350:0000002300000000
#010350:0000000000000013
#011320:00000000005300000000000000000000
#011350:00000023
#0143b0:0000000000000013
#015380:00000023
#0233b0:0000000000000013
#024370:0033000000000000
#0243b0:0000332300000000
#0253b0:0000001300000000
#025380:0000000000230000
#026380:0000001300000000
#0263b0:0000000000230000
#027350:0000001300000000
#027320:0000000033230000
#027380:0000000000000013
#0283b0:3323000000000000
#029320:0000001300000000
#029350:0000000000230000
#030350:0000001300000000
#030320:0000000000230000
#031380:0000001300000000
#0313b0:0000000033230000
#031350:0000000000000013
#032320:3323000000000000
#040320:00001333
#041320:23
#040381:00001333
#041381:23
#0413b1:00130000
#041381:0023
#043351:13
#043321:0000332300000000
#043381:0000000000000013
#0443b1:0023000000000000
#045321:00130000
#045351:0023
#047381:13
#0473b1:0023
#049321:14
#049331:00540054
#049341:0054
#050321:54
#050331:00540054
#050341:0054
#051321:24
#059351:0000001200000000
#060351:52
#061321:0028
#062321:0000000000000013
#063351:3323000000000000
#063351:0000001300000000
#063321:0000000033230000
#0643b1:13
#064381:0000002300000000
#064351:0000000000000013
#065321:0023000000000000
#0663b1:0000000000000013
#067381:3323000000000000
#067381:0000001300000000
#0673b1:0000000033230000
#068321:13
#068351:0000332300000000
#068381:0000000000000013
#0693b1:0023000000000000
#073391:00000013
#0743b1:0023
#073340:00000013
#074320:0023
