This file was generated by Ched 2.7.0.0.
#TITLE ""
#ARTIST ""
#DESIGNER ""
#DIFFICULTY 0
#PLAYLEVEL
#SONGID ""
#WAVE ""
#WAVEOFFSET 0
#JACKET ""
#REQUEST "ticks_per_beat 480"
#00002: 4
#BPM01: 130
#00008: 01
#TIL00: ""
#HISPEED 00
#MEASUREHS 00
#00016:0000000000001313
#00012:0000000000001313
#0011b:2300002300001313
#00117:0000000000001313
#00112:1300001300000000
#00118:0013130013130000
#00216:00000013
#00212:2300002300001313
#0021b:1300001300000000
#00215:0013130013130000
#00218:0000000000000012
#0031b:0012000012000013
#00317:00000000001300000000000000001300
#0031c:0000122200000000
#0031a:2200000000120000
#00318:00000012
#00412:2212120013000000
#0041c:0000000000001212
#00417:0000002313000000
#00416:0013000000140014
#00516:0012121200001200
#00518:1200000012120012
#00512:2400000000000014
#0051a:0000002400000000
#0161c:0000000000120000
#0161a:0000002412001200
#01618:1200000000000012
#01616:0000121200120000
#01614:0012000000001200
#01612:2400000000000012
#01716:1400001400140013
#0171a:1400141400000014
#01714:00000013
#01712:0000140000130000
#01710:41
#0211b:1313000013000000
#02112:13131313
#02117:00130000
#02116:0014002400240014
#02212:1313000000000013
#02216:0024132400241314
#0221b:23131323
#02318:00002300130000130000000000000000
#02312:2300001300130000
#02319:00000013
#0231b:1300002300000013
#02315:00001300001300002300000000000000
#02317:0000000000130000
#02314:00000013
#02316:0000000000000013
#02417:0013000000000000
#0241b:00331313
#02416:0000330013242424
#02412:0013000000230013
#02517:0000001300000000
#02516:00000013
#02512:2300000000000013
#0251b:2300131300131313
#02510:41
#02612:0000001300001300
#02617:0000000000000013
#0261b:0013131300130013
#02615:00120000
#02816:1300130000242424
#0281b:1300132300130013
#02812:0013002300001300
#0331c:12
#0331b:0012000000000000
#0331a:00120000
#03319:0000001200000000
#03318:0012
#03312:12121212
#03314:0012000000120000
#03310:41
#03418:0000000000000012
#03412:12121212
#03414:0012000000120000
#0351c:0000001200000012
#0351a:00001212
#03518:12120000
#03512:12121212
#03514:0012000000120000
#03618:0000000000120000
#0361c:00000012
#03612:12121212
#03614:0012000000120000
#03813:0000001200000000
#03814:0000000012000012
#03815:0000000000120000
#0381c:12121212
#0381a:0012000000120000
#03812:00120000
#03912:1200001200000022
#03916:0012000000120000
#03914:00121212
#0391c:1200120012001222
#0391a:0012000000120000
#04112:00130013
#04114:0000000000130013
#04110:41
#04216:13001313
#04212:0013001300130013
#04316:1300000000130000
#04314:00000013
#04312:0000000000000013
#04412:00131300
#04416:0000001300000000
#04415:00000012
#04417:0000000000000012
#04717:1300000000001212
#05218:1200000000000012
#05216:0000001200000000
#05212:0000000000120000
#05215:00000012
#05213:12
#0521f:11
#05316:0000000000120000
#05314:00000012
#05312:0000001200000012
#0531b:12
#05318:0012000000000012
#05315:00120000
#0531c:0000001200000000
#0531a:00000012
#0541c:1200000000120000
#05418:0000001200000000
#05419:00000012
#05416:1200000000000012
#05412:0000001200000000
#05513:12
#05516:0012001200000000
#05519:00120000
#0551c:0000001200000000
#05816:0000000000120012
#05812:12000012
#0581c:0000122200000000
#0581a:12
#05818:0000002200000000
#06216:0000131300000000
#06214:00000013
#06212:23
#0621a:0000240024002424
#0621f:21
#06316:0013000000001300
#06314:00130000
#06312:0000000000130013
#0631a:2400240024242424
#06310:41
#06416:1300000000130000
#06412:0000001300001300
#0641a:2400240024002424
#06516:0013000000230023
#06514:00130000
#06512:0000001300002300
#0651a:2400240024242424
#07016:0000142400000000
#07015:0000000000130013
#07018:00000013
#0701a:2400002400140014
#07012:24140014
#07117:0013001300000000
#07113:00130000
#07112:0023002300141400
#0711c:0000000000220000
#0711a:00000022
#07118:0000000000000022
#07116:00230000
#01216:12000012
#01212:0000002412000014
#0121a:2400120000000014
#0121c:0012000000000000
#01218:0000001200000000
#01214:0000000000120000
#01117:0000000000000013
#01112:0000122200000013
#01116:00000000001300000000000012000000
#01113:0012000012000000
#01114:2200000000120000
#01318:00000012
#01312:0000001200120014
#0131a:0012000000000014
#0131c:12120000
#01314:0012
#01316:2400002400000000
#02717:0000131300131313
#02712:1300131300001313
#0271b:1313
#02716:0013
#04012:0012120000001200
#04016:0000001200001200
#04018:0012120012000000
#0401c:0000001200000000
#05116:0000000000000012
#05119:00000012
#0511c:0000000000120000
#05717:00000012
#05716:0012000000000012
#05718:0000000000120000
#05713:12
#05719:00120000
#0571c:0000001200000000
#05712:0000001200000000
#0591c:0012000000000000
#05918:0012000000000000
#05919:00120000
#05915:00120000
#05916:0000001200000000
#07212:0000120000000012
#07218:0000120000120012
#07216:2200002200001200
#0721c:2200002200000000
#07316:0012001200001200
#07312:0000120000120000
#0731c:0012001200120000
#07318:00120012
#01816:0000120012000012
#01818:0012001200120000
#0181a:00140012
#01812:0000000000120000
#01814:00000012
#0181c:0000000012000012
#00618:0012121200001212
#00616:1200000012120000
#00612:0000002400000014
#0061a:24
#00716:0012121200001212
#00718:1200000012120000
#0071a:0000002400000014
#00712:24
#00817:0000000000001313
#0081b:0000000000001313
#00816:1200000012120000
#00818:0012121200000000
#0081a:24
#00812:0000002400000000
#00912:2300002300001313
#00916:0000000013131313
#0091b:1300001300000000
#00917:0013130000000000
#00910:41
#01017:0000000013131300
#0101b:2300002300001313
#01012:1300001300000000
#01016:0013130000000012
#01416:2400002400001200
#01412:1200120000000013
#01414:0012000000000000
#0141c:0000001200120000
#0141a:0012
#01418:0000000000000012
#01516:0000000000000013
#0151b:0012000012000013
#01517:00000000001300000000000000000000
#0151c:0000122200000000
#0151a:2200000000120000
#01518:00000012
#01916:1400001400140000
#01912:1400141400000014
#01919:00000013
#01917:0000000000000013
#0191a:00140000
#0191b:0000000000130000
#02016:0012001200120000
#02018:0000120012000012
#02012:0000140012000012
#0201c:0000000000120000
#0201a:00000012
#02014:00000012
#02916:0000001300000000
#02917:00000013
#0291b:2300000000000013
#02912:2300131300131313
#0301b:0000001300001300
#03016:0000000000000013
#03012:0013131300130013
#03019:00120000
#03116:0000131300131313
#0311b:1300131300001313
#03112:1313
#03117:0013
#03212:1300132300140000
#03217:13130000
#0321b:0013002300000000
#0321a:00000014
#03216:0000000000242400
#03712:12
#03713:0012000000000000
#03714:00120000
#03715:0000001200000000
#03716:0012
#0371c:12121212
#0371a:0012000000120000
#04916:1414
#0491a:00140000
#04912:00000014
#05016:1414
#05019:00140000
#05014:00000014
#0451b:00130013
#04519:2200000000130013
#04617:13001313
#0461b:0013001300130013
#05616:1200000000000012
#05618:0000001200000000
#0561c:0000000000120000
#05619:00000012
#0561b:12
#06617:0000131300000000
#06619:00000013
#0661b:23
#06612:2400240024002424
#06717:0013000000001300
#06719:00130000
#0671b:0000000000130013
#06712:2400240024242424
#06817:1300000000130000
#0681b:0000002300001300
#06812:2400240024242424
#06917:0013000000230023
#06919:00130000
#0691b:0000001300002300
#06912:2400240024242424
#00252:0000000000000053
#00357:00000000002300000000000000000000
#0035b:0000000000000053
#01157:0000000000000013
#01152:0000000000000013
#01156:00000000002300000000000000000000
#0235b:0000000000000063
#02557:0000005300000000
#02552:5300000000000053
#0255b:1300130000001313
#02652:0000005300000000
#0265b:0000130000130013
#02752:0000005300000013
#02757:0000130000001353
#02756:0023
#04152:00630000
#04356:63
#04352:0000000000000063
#06252:13
#0625a:0000140000001414
#06256:0000005300000000
#06456:63
#0645a:0000140000001414
#06452:0000001300000000
#07056:0000141400000000
#0705a:0000001400000000
#07052:00140000
#07055:0000000000130013
#07058:00000013
#0725c:0000001200000000
#07256:0000001200001200
#07252:00120000
#07258:00120000
#07358:00120052
#07352:00120000
#07356:00000062
#0175a:1400001400000014
#00456:0023000000000000
#00452:0013
#00457:0013
#01556:0000000000000013
#0155b:0000000000000013
#01557:00000000002300000000000000000000
#01452:0000000000000053
#01952:1400001400000014
#02457:0023000000000000
#02452:0023000000000013
#0245b:00000013
#0285b:2300000000130013
#02856:00130000
#02852:00000013
#02956:0000006300000000
#0295b:6300000000000063
#02952:1300130000001313
#0305b:0000006300000000
#03052:0000130000130013
#03156:0000130000001363
#0315b:0000006300000013
#03157:0023
#03252:2300000000340000
#03257:00130000
#0325a:00000044
#04052:00000052
#04056:00000052
#04956:5454
#0495a:00240000
#04952:00000024
#05056:5454
#05059:00240000
#05054:00000024
#0455b:00530000
#04757:53
#05258:52
#0535c:0000005200000000
#05656:62
#05752:0000006200000000
#0635a:0000140000141414
#0655a:0000140000140014
#06657:0000006300000000
#0665b:13
#06652:0000140000001414
#06857:53
#06852:0000140000141414
#0685b:0000001300000000
#06752:0000140000141414
#06952:0000140000141414
#07153:00130000
#07152:0000000000141400
#0105b:0000000000000063
#002320:0000000000000013
#003370:00000000005300000000000000000000
#003320:00000023
#0033b0:0000000000000013
#004360:0053000000000000
#0043b0:0000002300000000
#0103b0:0000000000000013
#011360:00000000005300000000000000000000
#0113b0:00000023
#014320:0000000000000013
#015370:00000000005300000000000000000000
#015320:00000023
#0213b0:0000000000130023
#022320:0000001300230000
#0233b0:0000000000000013
#024370:0033000000000000
#0243b0:0000332300000000
#024321:0013000000000000
#024361:0000332300000000
#025321:13
#025371:00230000
#025371:0000001300000000
#025321:0000000000230000
#025321:0000000000000013
#026371:0023000000000000
#026321:0000001300000000
#026371:0000000000230000
#027321:0000001300230000
#027361:0033
#027371:0000000000000013
#0283b1:33
#028371:0023000000000000
#0293b1:13
#029361:00230000
#029361:0000001300000000
#0293b1:0000000000230000
#0293b1:0000000000000013
#030361:0023000000000000
#0303b1:0000001300000000
#030361:0000000000230000
#0313b1:0000001300230000
#031371:0033
#031361:0000000000000013
#032321:33
#032361:0023000000000000
#033381:00000012
#0333c1:0000000000000032
#034381:22
#0343c1:00123222
#034381:0000003200320000
#036381:0012002200000000
#0363a1:00320000
#037361:00000012
#037321:0000000000000032
#038361:22
#040321:00001232
#041381:22
#040360:00000012
#0413c0:32323232
#0413b0:0032003200320032
#0423c0:32323232
#0423b0:0032003200320032
#0433c0:32323232
#0433b0:0032003200320032
#0443c0:32323222
#0443b0:0032003200320000
#041321:00130000
#041361:0023
#043361:13
#043321:0000332300000000
#043321:0000000000000013
#044361:0023000000000000
#045320:12323232
#045330:0032003200320032
#046320:32323232
#046330:0032003200320032
#047320:32323232
#047330:0032003200320032
#048320:32323232
#048330:0032003200320032
#049320:22
#0453b1:00130000
#045371:0023
#047371:13
#0473b1:0023
#049361:1454
#0493a1:00540000
#049321:00000054
#050361:5454
#050391:00540000
#050341:00000054
#051361:24
#052381:12
#0523b1:0000002200000000
#0533c1:0000001200000000
#053381:0000000000220000
#056361:12
#056331:0000002200000000
#057321:0000001200000000
#057361:0000000000220000
#059321:0000001200000000
#060321:52
#061321:002c
#061381:0000000000130000
#061361:00000033
#061341:0000000000000033
#062321:23
#0613c0:0000000000120000
#0613a0:00000032
#061380:0000000000000032
#062360:22
#062360:0000001300000000
#062320:0000000000230000
#062360:0000000000000013
#062320:00000000000000000000000000000053
#063320:23
#063320:0000001300000000
#063360:00000000000000532300000000000000
#064360:13
#064320:00230000
#064360:0000000000000013
#064320:00000000000000000000000000000053
#065320:23
#066370:0000001300000000
#0663b0:0000000000230000
#066370:0000000000000013
#0663b0:00000000000000000000000000000053
#0673b0:23
#0673b0:0000001300000000
#067370:00000000000000532300000000000000
#068370:13
#0683b0:00230000
#068370:0000000000000013
#0683b0:00000000000000000000000000000053
#0693b0:23
#073380:00000012
#074380:0026
#073361:00000012
#074321:0026
