This file was generated by Ched 2.7.0.0.
#TITLE ""
#ARTIST ""
#DESIGNER ""
#DIFFICULTY 0
#PLAYLEVEL
#SONGID ""
#WAVE ""
#WAVEOFFSET 0
#JACKET ""
#REQUEST "ticks_per_beat 480"
#00002: 4
#BPM01: 130
#00008: 01
#TIL00: ""
#HISPEED 00
#MEASUREHS 00
#0371a:14
#03714:0014
#03812:0014
#03818:14
#0391a:14
#03914:0014
#04112:14
#04118:0014
#04110:41
#04214:14
#0421a:0014
#0451a:14
#04514:0014
#04618:14
#04612:0014
#07018:0014
#07012:00000014
#07014:00140000
#0701a:14
#00114:0000000000001414
#0021a:00000014
#01818:00000014
#02014:00000014
#0261a:00140000
#02614:14
#02712:0014
#02718:00000014
#0331a:1434
#03318:00000014
#03310:41
#04914:14
#04918:0014
#05014:14
#05018:0014
#0521a:1414
#0521f:11
#05314:1414
#00018:0000000000001414
#01718:0000341400000000
#0171a:14
#01719:0000000000340000
#01710:41
#01914:0000341400000000
#01912:14
#01913:0000000000340000
#02514:00140000
#0251a:24
#02510:41
#02814:14
#03012:00140000
#03018:14
#0311a:0014
#03114:00000014
#02918:00140000
#02912:24
#03218:14
#06214:00140014
#0621a:2414
#0621f:21
#06318:14
#06312:00140000
#06310:41
#06412:14
#06418:00140000
#06414:0014
#0641a:00000014
#06512:14
#06618:00140014
#06612:2414
#06714:14
#0671a:00140000
#0681a:14
#06814:00140000
#06818:0014
#06812:00000014
#06918:14
#07118:14
#07112:00000014
#0711a:0014
#07114:00140000
#0071a:0000000000001414
#00612:0000000000001414
#00414:0000000000001414
#00518:0000000000001414
#00918:0000000000001414
#00910:41
#01012:00000014
#00814:0000000000001414
#01218:0000000000001414
#01314:0000000000001414
#0141a:00000014
#01614:00000014
#02214:00140014
#02218:0014
#0231a:14
#02316:00140000
#0541a:1434
#05814:0014
#05812:14
#05718:1414
#05612:0014
#05114:14
#0211a:1400000000000034
#02118:0000000000140000
#03512:1434
#03514:00000014
#05517:14
#0551a:0034
#0341a:34
#04718:00000034
#04413:00340000
#03612:34
#0175a:6400000000000014
#01758:0000005400000000
#01952:5400000000000014
#01954:0000006400000000
#03358:00000024
#0335a:64
#0655a:00000014
#06952:00000014
#0285a:00000014
#02952:14
#0255a:14
#0625a:14
#06652:14
#03252:00000014
#0545a:64
#05854:0024
#05852:54
#0215a:64
#02158:0000000000540000
#03552:54
#03554:00000024
#05557:24
#0023a0:0000000000000014
#003380:0000000000003434
#0043a0:0024
#010320:0000000000000014
#011340:0000000000003424
#0143a0:0000000000000014
#015380:0000000000003424
#0173a0:1400000000000024
#017380:0000343400000000
#017390:0000000000340000
#019320:1400000000000024
#019340:0000343400000000
#019330:0000000000340000
#0213a0:1400000000000034
#021380:0000000000340000
#0223a0:24
#023320:0000000014343434
#024320:0034343424000000
#0253a0:00001424
#026340:00001424
#027380:14240000
#0283a0:00140024
#029320:00001424
#030380:00001424
#031340:14240000
#032320:00140024
#0333a0:1434
#033380:00000054
#0343a0:3424
#035320:1434
#035340:00000054
#036320:3424
#040380:14342400
#043320:14
#043340:0000000000343434
#044330:00340000
#044320:0024
#0473a0:14
#047380:0000000000003434
#0483a0:0024
#0543a0:1434
#055370:34
#0553a0:0034
#0563a0:24
#058320:14
#058340:0034
#059320:3434343400000000
#061320:0000000000280000
#063380:00001424
#0653a0:00140024
#067340:00001424
#069320:00140024
#072380:1400343400343434
#073380:0034343400343400
#074360:0028
