This file was generated by Ched 2.7.0.0.
#TITLE ""
#ARTIST ""
#DESIGNER ""
#DIFFICULTY 0
#PLAYLEVEL
#SONGID ""
#WAVE ""
#WAVEOFFSET 0
#JACKET ""
#REQUEST "ticks_per_beat 480"
#00002: 4
#BPM01: 95
#00008: 01
#TIL00: ""
#HISPEED 00
#MEASUREHS 00
#00019:14
#00213:14
#00119:14
#00313:14
#0041a:14
#00410:41
#00512:14
#0061a:14
#00712:14
#00818:14
#00914:14
#0101a:14
#01012:0014
#01214:14
#01210:41
#01318:14
#01412:14
#0141a:0014
#02012:0016
#02018:26
#02218:0016
#02212:16
#02312:16
#02318:0016
#02612:0016
#02618:16
#02712:0016
#02718:16
#02418:0016
#02412:26
#02410:41
#03812:0016
#03818:26
#0381f:21
#03918:16
#03912:0016
#04018:1616
#04112:16
#04118:0016
#04218:0016
#04212:26
#04210:41
#04312:16
#04318:0016
#04412:1616
#04518:16
#04512:0016
#03612:0014
#03618:24
#03712:0015
#03718:25
#04818:14
#04912:14
#0501a:14
#01619:15
#01617:00000015
#01812:15
#01814:00000015
#01810:41
#0321f:11
#03218:0034
#02818:0034
#02918:34
#03014:0034
#03010:41
#03114:34
#03318:34
#03414:0034
#03514:34
#01659:65
#01657:00000025
#01852:65
#01854:00000025
#0113a0:1424
#015320:1424
#016390:15
#016370:00000055
#017390:0025
#018320:15
#018340:00000055
#019320:0025
#021380:1626
#025320:1626
#028380:1434
#029380:34
#0293a0:0024
#030340:1434
#031340:34
#031320:0024
#032380:1434
#033380:34
#0333a0:0024
#034340:1434
#035340:34
#035320:0024
#046380:1626
#047320:1626
#051340:1400000000000024
