This file was generated by Ched 2.7.0.0.
#TITLE ""
#ARTIST ""
#DESIGNER ""
#DIFFICULTY 0
#PLAYLEVEL
#SONGID ""
#WAVE ""
#WAVEOFFSET 0
#JACKET ""
#REQUEST "ticks_per_beat 480"
#00002: 4
#BPM01: 95
#00008: 01
#TIL00: ""
#HISPEED 00
#MEASUREHS 00
#00015:00001300000000000000000000130000
#0001b:00000013001300000000000013000000
#00012:00000000001300000000001300000000
#00018:0000000000000013
#00212:00001313001300000000001300000000
#0021b:00000013001300130013000013000000
#00218:00000000000000000000000000130000
#00215:0000000000000013
#00216:00000000000000130000000000000000
#00516:0000001300000023
#0051b:13000000001300130000002300230000
#00512:00000013000000001300130000000000
#00517:00000000000000000013000000000000
#0101b:00000013000000130000000013000000
#01017:0000000000130000
#01012:00001300000000000000001300000013
#01016:13000000000013000000000000140000
#01014:00130000
#01018:00000000001300000000000000000000
#01116:0013000000000000
#0111b:00000013000000130000000000000000
#01112:00000000130000130000000000000000
#01117:00000000001300000000000000000000
#01115:0000000000000000000000000000000000000013000000000000000000000000
#01118:0000000000000000000000000000000000000013000000000000000000000000
#00115:0000000000000013
#00118:00001300000000000000000000130000
#00112:00000013001300000000000013000000
#0011b:00000000001300000000001300000000
#00412:24000013000000130000001300000000
#0041b:23000000000013000000130000130000
#00415:00000000000000000013000000000000
#00418:0013
#00416:00000000001300000000000000000000
#00410:41
#01512:00000013001300000013000000001300
#01518:00000000000000130000000000000000
#01515:00000000000000130000000000000000
#0151b:00000000130000000013000000000000
#01517:00001300000000000000000000130013
#01717:0000000000000000000000000000000000000013000000000000130000001300
#0171b:00000000000000130000000000000000
#01715:00130000000013000000000000000000
#01718:00001300001300000000000000000000
#01712:00000013
#01714:0000000000000013
#0161b:00130000000013000000000000000000
#01616:00130000001300130000000000000000
#01612:00000000000000000013000000000000
#01617:00000000000000000013000000000000
#01618:00000000000000000000000000130000
#01615:0000000000000013
#01619:0033000000330000
#01614:0033000000330000
#01816:00000000001300130000130000000000
#01819:0000001300000000
#01812:00130013000000000000000000000000
#01817:0013000000000000
#0181b:00000000000000000013001300000000
#01815:00000000000000000000000000130000
#01818:0000000000000013
#01810:41
#01912:0000000014141414
#01918:00130000000013000000000000000000
#01915:00001300001300130000000000000000
#0191a:0000000024242424
#02015:00000000001300000000000000001300
#02018:0000001300000000
#02012:00000013000000130000002400130000
#02017:00000013000000000000000000000000
#02014:28
#0201a:0024
#02016:0000000000000000000000000000000000000024000000000000000000000000
#02115:00130000000000130000000000000000
#02118:0013001300000000
#02112:0000000000000000000013000000000000000014000000000000000000001300
#0211a:00000000000000001400001400000000
#02215:00000000001300000000000000001313
#02212:00000013000000130000002400000000
#0221b:0000001300000000000000001300000000000000000000000000130000000000
#02217:13
#02218:00130000
#0221a:0024
#02216:0000000000000000000000000000000000000024000000000000000000000000
#02318:00001313001300000000000000000000
#02315:00130000000013000000000000000000
#0231b:00000000000000130000000000000000
#02316:0024
#02312:0000000000000000000000000000000000000024000024000000000000000000
#0231a:0000000000000000000000000000000000000024000024000000000000000000
#0261b:0013130000000000
#02618:00000000001300000000130000000000
#02615:0000001300000013
#02612:00001300000000130000000000000000
#02617:00000000000000000013000000000000
#02619:00000000000000000000001300000000
#02613:00000000000000000000000000000013
#02616:0000000000000013000000000000000000000000000000000000000000000000
#02614:28
#02712:00000000001300000000000000000000
#02715:00000013000000130000000000000013
#02718:00001313000000130000000000000000
#0271b:00000000001300000000000000000000
#02418:00000000001300000000000000001300
#02415:0000001300000000
#0241b:00000013000000130000000000130000
#02416:0000000000001300000000000000000000000024000000000000000000000000
#02414:28
#02412:0024
#0241a:00000000000000000000002400000000
#02410:41
#02518:00130000000000130000000000000000
#02515:0013001300000000
#0251b:00000000001300000000000000000000
#02512:00000000000000001400001400000000
#0251a:0000000000000000000000000000000000000014000000000000000000000000
#02812:0013001300001300
#0281b:00000013000000000000130000000000
#02818:23000000130000130000000000000000
#02815:00000000001300000013000000000000
#02817:00000000000000000000000000000013
#02919:0000001300000013
#02914:0013000000130000
#02912:23
#0301a:0013000000000000
#03017:00000013000000000000000000000000
#03012:00000013000000130000000013000000
#03019:00130000
#0301b:23000000001300130000000013000000
#03015:00001300000000000013000000000013
#03014:00130000
#03016:00000000001300000000000000000000
#03018:0000000000130000
#03010:41
#03115:00001300001300130000001300000000
#03118:13000013000013000000130000000013
#0311b:00130000000000001300000000000000
#03117:00000013
#03112:23130013
#0321b:0013001300001300
#03212:00000013000000000000130000000000
#03215:23000000130000130000000000000000
#03218:00000000001300000013000000000000
#03216:00000000000000000000000000000013
#0321f:11
#03314:0000001300000013
#03319:0013000000130000
#0331b:23
#03413:0013000000000000
#03416:00000013000000000000000000000000
#0341b:00000013000000130000000013000000
#03414:00130000
#03412:23000000001300130000000013000000
#03418:00001300000000000013000000000013
#03419:00130000
#03417:00000000001300000000000000000000
#03415:0000000000130000
#03518:00001300001300130000001300000000
#03515:13000013000013000000130000000000
#03512:00130000000000001300000000000000
#03516:00000013
#0351b:23130013
#03612:1400000023131313
#0361b:2313131300000000
#03613:0014000000000000
#03614:00140000
#03615:0000001400000000
#03617:0014
#03618:0000000000140000
#03619:00000014
#0361a:0000000000000014
#03717:13
#03719:0013000000000000
#0371b:00131300
#03712:2400001300130000
#03714:0024000024001300
#03716:0000240000240013
#03718:0000002400002400
#0371a:0000000000000024
#0381b:00000000001300000000000000000000
#03818:0000001300000013
#03815:00000000000000130000000000130000
#03817:00000013000000000000000000000000
#03812:00000013000000000000002400000000
#03814:28
#0381a:00000000000000002400002400000000
#03816:0000000000000000000000000000000000000024000000000000000000000000
#0381f:21
#03912:00001300000000001600001600000000
#0391b:00130000000000130000000000000000
#03915:00000000001300000000000000000000
#03918:0000000000000000000000001300000000000016000000000000000000000000
#03917:00000000000000000000000000000013
#04018:00000000001300000000000000000000
#04015:00000000130000130000000000000000
#0401b:00000013000013000000000000000000
#04012:13000000000000000000002400130000
#04016:0000001300000000000000000000000000000024000000000000000000000000
#04019:00000000000000000000000000001313
#0401a:00000000000000002400002400000000
#04114:0000000013001300000000000000000000000000000000000014000000000000
#04112:00000000001300002400002400000000
#04118:0000000000000000000000001300000000000000000000000014000000000000
#04115:00000000000000130000000000000000
#0411b:00130000000000000000000000000000
#04116:0000000000000000000000000000000000000024000000000000000000000000
#0411a:00000000000000002400002400000000
#04412:0013130000000000
#04415:00000000001300000000130000000000
#04418:0000001300000013
#0441b:00001300000000130000000000000000
#04417:0000000000000013000000000000000000000000000000000000000000000000
#04416:00000000000000000013000000000000
#04414:28000000000000000000001300000000
#0441a:00000000000000000000000000000013
#0451b:00000000001300000033000000000000
#04518:00000013000000130000000000000013
#04512:00000000001300000033000000000000
#04515:00001313000000130000000000000000
#04516:0000000000000013
#04514:00000000000000000000000000130000
#04615:00000000001300000013000000001300
#04618:00000000000013000000130000130000
#04612:00001300000000130000000000000013
#0461b:00000000130000000000001300000000
#04812:13000000000000000000001300000000
#04818:00000000001300000000000000130000
#04816:00000013000000000000000000000000
#0481b:00000000000000130000130000000000
#04815:0000001300000000
#04912:0000001300000000000013000000000000000000130000000000000000000000
#04918:00000000000013000000000000130000
#04915:00000000000000130000000000001300
#0491b:00000013000000001300001300000000
#04916:13
#04212:00000000001300002400002400000000
#04215:0000001300000013
#04218:00000000000000130000000000130000
#04216:0000000000001300000000000000000000000024000000000000000000000000
#0421b:00000013000000000000000000000000
#04214:28
#0421a:00000000000000000000002400000000
#04210:41
#0431b:0013000000000000
#04312:0000130000000000000000000000130000000016000000000000000000000000
#04318:00000000001300001600001600000000
#04315:0000001300000000
#0471b:1300000000001300000000000000000000000013000000000000000000000000
#04712:0000000000001300000000000000000000000013000000000000000000000000
#04715:00000000000000130000000000000000
#04718:00000000000000130000000000000000
#04714:00000000001300000000000000000000
#04719:00000000001300000000000000000000
#04716:0000000000000024
#00912:13000000001300000023000000130000
#00915:0013000000000000
#0091b:00000000000000130000002300000000
#00916:00000000000000000000000000000013
#01412:00000013000000130000000013000000
#01416:00000000000000000000130000140000
#0141b:00001300000000000000001300000013
#01419:00130000
#01415:00000000001300000000000000000000
#01417:1300001300000000
#01317:00000000000000000000000000000013
#0131b:13000000001300000023000000130000
#01318:0013000000000000
#01312:00000000000000130000002300000000
#01218:00000000000000000013000000130000
#0121b:13000000000000130000001300000000
#01212:13001313000000000000130000000000
#01217:00000013000000000000000000000000
#01215:00000000001313001300000013000013
#01210:41
#0031b:00001313001300000000001300000000
#00312:00000013001300130013000013000000
#00315:00000000000000000000000000130000
#00318:0000000000000013
#00317:00000000000000130000000000000000
#00818:00000000001313001300000013000013
#00815:00000000000000000013000000130000
#00812:13000000000000130000001300000000
#0081b:00001313000000000000130000000000
#00816:00000013000000000000000000000000
#00717:0000001300000023
#00712:13000000001300130000002300230000
#0071b:00000013000000001300130000000000
#00716:00000000000000000013000000000000
#0061b:00000013000000130000001300000000
#00612:00000000000013000000130000130000
#00618:00000000000000000013000000000000
#00615:0013
#00617:00000000001300000000000000000000
#0061a:24
#0501b:13000000000000000000001300000000
#05015:00000000001300000000000000130000
#05017:00000013000000000000000000000000
#05012:00000000000000130000130000000000
#05018:0000001300000000
#0511b:0000001300000000000013000000000000000000130000000000000000000000
#05115:00000000000013000000000000130000
#05118:00000000000000130000000000001300
#05112:00000013000000001300001300000000
#05117:13
#00452:14
#01152:00000000000000530000000033000000
#0115b:00000000000000630000000043000000
#01157:00000000006300000000000000000000
#01158:0000000000000000000000000000000000000023000000000000000000000000
#01155:0000000000000000000000000000000000000023000000000000000000000000
#01552:00000000006300000023000000000000
#01558:00000000000000530000000000000000
#01555:00000000000000630000000000000000
#0155b:00000000000000000023000000000000
#01557:00000000000000000000000000000053
#0165b:00530000000000000000000000000000
#01656:00530000000000630000000000000000
#01652:00000000000000000063000000000000
#01657:00000000000000000063000000000000
#0175b:00000000000000530000000000000000
#01757:0000000000000000000000000000000000000023000000000000000000005300
#01852:00000013000000000000000000000000
#01856:00000000000000630000000000000000
#0185b:00000000000000000000001300000000
#02054:18
#02057:00000053000000000000000000000000
#02454:18
#02456:00000063000000000000000000000000
#0225b:0000002300000000000000000000000000000000000000000000530000000000
#02257:53
#02355:00530000000000000000000000000000
#0235a:00000000000000000000005400000000
#02352:00000000000000000000006400000000
#0215a:00000000000000004400004400000000
#02152:0000000000000000000000000000000000000034000000000000000000000000
#02552:00000000000000003400003400000000
#0255a:0000000000000000000000000000000000000044000000000000000000000000
#02752:00000000006300000000000013000000
#02755:00000063000000630000000000000000
#0275b:00000000005300000000000013000000
#02758:00000053000000530000000000000000
#0285b:0000000000130000
#02852:00000013
#03057:00000023000000000000000000000000
#0305b:00000000002300000000000013000000
#03059:00530000
#0305a:0053000000000000
#03055:0053000000000000
#03052:00000023000000000000000013000000
#03054:00530000
#03056:00000000002300000000000000000000
#03058:0000000000130000
#03152:00530053
#03157:00000053
#03158:53
#03155:00000000002300000000000000000000
#0315b:00230000000000000000000000000000
#03252:0000000000130000
#0325b:00000013
#03453:0063000000000000
#03456:00000023000000000000000000000000
#03454:00630000
#03452:00000000002300000000000013000000
#03458:0063000000000000
#0345b:00000023000000000000000013000000
#03459:00630000
#03457:00000000002300000000000000000000
#03455:0000000000130000
#03556:00000063
#0355b:00630063
#03555:63
#03552:00230000000000000000000000000000
#03558:00000000002300000000000000000000
#0455b:00000000005300000000000000000000
#04558:00000053000000530000000000000000
#04552:00000000006300000000000000000000
#04555:00000063000000630000000000000000
#04052:53000000000000000000000000530000
#04056:0000002300000000000000000000000000000000000000000000000000000000
#0415b:00530000000000000000000000000000
#04154:0000000000000000000000000000000000000000000000000024000000000000
#04158:0000000000000000000000000000000000000000000000000024000000000000
#04152:00000000000000000000006400000000
#0415a:00000000000000000000005400000000
#03852:00000053000000000000000000000000
#03854:18
#04254:18
#0425b:00000063000000000000000000000000
#0475b:5300000000000000000000000000000000000023000000000000000000000000
#04758:00000000000000530000000000000000
#04755:00000000000000630000000000000000
#04752:0000000000000000000000000000000000000023000000000000000000000000
#04652:0063000000000000
#0055b:53
#00552:00000053000000000000000000000000
#00556:0000000000000023
#03952:00000000000000003600003600000000
#03958:0000000000000000000000000000000000000046000000000000000000000000
#00952:00000000000000000000000000130000
#0135b:00000000000000000000000000130000
#01258:00000000000000000000000000130000
#01257:00000063000000000000000000000000
#0125b:63
#00357:00000000000000530000000000000000
#00352:00000000000000000053000000000000
#00256:00000000000000630000000000000000
#0025b:00000000000000000063000000000000
#04955:0000000000000013
#04956:53
#0495b:0053
#04952:0000002300000000000000000000000000000000000000000000000000000000
#04852:53
#04856:00000063000000000000000000000000
#04858:00000000000000000000000000230000
#00852:53
#00856:00000053000000000000000000000000
#00855:00000000000000000000000000130000
#00752:63
#00757:0000000000000023
#0075b:00000063000000000000000000000000
#0065a:14
#04358:00000000000000004600004600000000
#04352:0000000000000000000000000000000000000036000000000000000000000000
#0505b:63
#05055:00000000000000000000000000230000
#05057:00000053000000000000000000000000
#05158:0000000000000013
#05157:63
#0515b:0000002300000000000000000000000000000000000000000000000000000000
#05152:0063
#000380:1323000000000000
#000350:00000000000000130023000000000000
#000381:00000000000000000013002300000000
#001351:1323000000000000
#001381:00000000000000130023000000000000
#001350:00000000000000000013002300000000
#0023b0:13
#002370:0023000000000000
#002360:00000000000000130000000000000000
#002320:00000000000000000023000000000000
#0023b1:00000000000000000013000000000000
#002371:00000000000000000000002300000000
#003321:13
#003361:0023000000000000
#003371:00000000000000130000000000000000
#0033b1:00000000000000000023000000000000
#003320:00000000000000000013000000000000
#003360:00000000000000000000002300000000
#004370:00000013000000000000000000000000
#0043b0:00000000002300000000000000000000
#004360:0000000000000013
#005360:23
#0053b1:13
#005371:00000023000000000000000000000000
#005320:00000013000000000000000000000000
#005360:00000000002300000000000000000000
#005360:0000000000000013
#006320:23
#006360:00000013000000000000000000000000
#006320:00000000002300000000000000000000
#006370:0000000000000013
#007370:23
#007321:13
#007361:00000023000000000000000000000000
#0073b0:00000013000000000000000000000000
#007370:00000000002300000000000000000000
#007370:0000000000000013
#0083b0:23
#008321:1300002300000000
#008361:00000033000000000000000000000000
#0093b1:1323000000000000
#009381:00000013002300000000000000000000
#009351:00000000000013230000000000000000
#009381:00000000000000001323000000000000
#009351:00000000000000000000132300000000
#009381:00000000000000000000000013230000
#0103b1:13
#010371:0023000000000000
#010361:0013
#010321:0000000000230000
#011371:13
#0113b1:0023000000000000
#011371:00000000001300000000000000000000
#0113b1:00000000000000330000000023000000
#011381:0000000000000000000000000000000000000053000000000000000000000000
#011320:00000000000000130000000023000000
#011350:0000000000000000000000000000000000000053000000000000000000000000
#0123b0:1300002300000000
#012370:00000033000000000000000000000000
#013320:1323000000000000
#013350:00000013002300000000000000000000
#013380:00000000000013230000000000000000
#013350:00000000000000001323000000000000
#013380:00000000000000000000132300000000
#013350:00000000000000000000000013230000
#014320:13
#014360:0023000000000000
#014370:0013
#0143b0:0000000000230000
#015360:13
#015320:0023000000000000
#015320:00000000001300000053000000000000
#015350:00000000000000330000002300000000
#015381:00000000000000130000002300000000
#0153b1:00000000000000000053000000000000
#015371:00000000000000000000000000000013
#0163b1:00330000000000000000000000000000
#016391:0033000000000000
#016371:00000023000000000000000000000000
#016360:00130000000000000000000000000000
#016340:0033000000000000
#016320:00000023000000000000000000000000
#016360:00000000000000130000002300000000
#016320:00000000000000000033000000000000
#016340:0000000000330000
#016371:00000000000000000013000000000000
#016391:0000000000330000
#0163b1:00000000000000000000002300000000
#0163b1:00000000000000000000000000000013
#0173b1:00230000000000000000000000000000
#017321:00000013002300000000000000000000
#0173b1:00000000000000130000000023000000
#017371:0000000000000000000000000000000000000053000000000000000000000000
#017371:00000000000000000000000000000013
#0183b1:00230000000000000000000000000000
#018361:00000000000000130000000000000000
#018321:00000000000000000023000000000000
#018321:00000000000000000000000000000013
#019321:00230000000000000000000000000000
#0193b1:00000013002300000000000000000000
#020371:00000013000000000000000000000000
#0203b1:00000000002300000000000000000000
#020381:00000000000000000000000000000013
#021381:00230000000000000000000000000000
#0213b1:00000013002300000000000000000000
#022371:13000023000000000000000000000000
#0223b1:0000005300000000000000000000000000000000000000000000000000000000
#0223b1:00000000000000000000000000130000
#023381:00230000000000000000000000000000
#023350:00130000000000000000000000000000
#023320:00000000002300000000000000000000
#0233a0:00000000000000000000001400000000
#023380:0000000000000024
#023321:00000000000000000000001400000000
#023341:0000000000000024
#024361:00000013000000000000000000000000
#024321:00000000002300000000000000000000
#024351:00000000000000000000000000000013
#025351:00230000000000000000000000000000
#025321:00000013002300000000000000000000
#026321:00000000000000000013000000000000
#026361:00000000000000000000000000230000
#0263b0:00000000000000000000000000130000
#027370:23
#027321:13
#027351:0023000000000000
#027351:00000013000000330000000000000000
#027321:00000000003300000000000023000000
#027380:00000013000000330000000000000000
#0273b0:00000000003300000000000023000000
#029370:13230000
#0293b0:0033000000000000
#029390:00000033000000000000000000000000
#029321:00132300
#029361:0000003300000000
#029341:00000000000000330000000000000000
#029370:00001323
#0293b0:0000000000330000
#029390:00000000000000000000003300000000
#029321:00000013
#029361:0000000000000033
#030321:23
#0303a1:0013000000000000
#030371:00000033000000000000000000000000
#030391:00330000
#0303b1:00000000003300000000000000000000
#030381:0000002300000000
#030350:0013000000000000
#030320:00000033000000000000000000000000
#030340:00330000
#030360:00000000003300000000000000000000
#030330:0000002300000000
#031380:1323000000000000
#0313b0:00530000000000000000000000000000
#031320:0000132300000000
#031350:00000000005300000000000000000000
#031370:00000013
#0313b0:0000000000000023
#031321:00000013
#031361:0000000000000023
#033361:13230000
#033321:0033000000000000
#033341:00000033000000000000000000000000
#0333b0:00132300
#033370:0000003300000000
#033390:00000000000000330000000000000000
#033361:00001323
#033321:0000000000330000
#033341:00000000000000000000003300000000
#0333b0:00000013
#033370:0000000000000033
#0343b0:23
#034330:0013000000000000
#034360:00000033000000000000000000000000
#034340:00330000
#034320:00000000003300000000000000000000
#034350:0000002300000000
#034381:0013000000000000
#0343b1:00000033000000000000000000000000
#034391:00330000
#034371:00000000003300000000000000000000
#0343a1:0000002300000000
#035351:1323000000000000
#035321:00530000000000000000000000000000
#0353b1:0000132300000000
#035381:00000000005300000000000000000000
#035361:00000013
#035321:0000000000000023
#0353b0:00000013
#035370:0000000000000023
#038320:00000013000000000000000000000000
#038360:00000000002300000000000000000000
#038320:00000000000000000000000000000013
#039360:00230000000000000000000000000000
#039370:00000013000000000000000000000000
#0393b0:00000000002300000000000000000000
#040320:13000023000000000000000000000000
#040360:0000005300000000000000000000000000000000000000000000000000000000
#040320:00000000000000000000000000130000
#041360:00230000000000000000000000000000
#0413b1:00130000000000000000000000000000
#041371:00000000002300000000000000000000
#0413a1:00000000000000000000001400002400
#041381:0000000000000000000000000000000000000000000000000054000000000000
#041320:00000000000000000000001400002400
#041340:0000000000000000000000000000000000000000000000000054000000000000
#0423b0:00000013000000000000000000000000
#042370:00000000002300000000000000000000
#0423b0:00000000000000000000000000000013
#043370:00230000000000000000000000000000
#043360:00000013000000000000000000000000
#043320:00000000002300000000000000000000
#0443b0:00000000000000000013000000000000
#044370:00000000000000000000000000230000
#044321:00000000000000000000000000130000
#045361:23
#0453b0:13
#045380:0023000000000000
#045380:00000013000000330000000000000000
#0453b0:00000000003300000033002300000000
#045351:00000013000000330000000000000000
#045321:00000000003300000033002300000000
#046321:0013000000000000
#046361:00230000
#0473b1:13
#047371:0023000000000000
#047381:00000000000000130000000023000000
#0473b1:0000000000000000000000000000000000000053000000000000000000000000
#047350:00000000000000130000000023000000
#047320:0000000000000000000000000000000000000053000000000000000000000000
#048320:13000000002300000000000000000000
#048360:00000033000000000000000000000000
#048360:0000000013230000
#048380:00000000000000000000000000130000
#0493b0:23
#049361:13000023000000000000000000000000
#049321:0000005300000000000000000000000000000000000000000000000000000000
#0493b1:0013
#049371:0000000000230000
#0503b1:13000000002300000000000000000000
#050371:00000033000000000000000000000000
#050371:0000000013230000
#050351:00000000000000000000000000130000
#051321:23
#051370:13000023000000000000000000000000
#0513b0:0000005300000000000000000000000000000000000000000000000000000000
#051320:0013
#051360:0000000000230000
