This file was generated by Ched 2.7.0.0.
#TITLE ""
#ARTIST ""
#DESIGNER ""
#DIFFICULTY 0
#PLAYLEVEL
#SONGID ""
#WAVE ""
#WAVEOFFSET 0
#JACKET ""
#REQUEST "ticks_per_beat 480"
#00002: 4
#BPM01: 95
#00008: 01
#TIL00: ""
#HISPEED 00
#MEASUREHS 00
#00512:0013
#00518:00000033000000000013000000002300
#00515:00000000000013000000130000230000
#0051b:13000000000000130000002300000000
#01015:00000000000000130000001300000000
#01018:00000013000013000000000013000013
#01012:00000000001300000000000000130000
#0111a:00000014000000140000000000000000
#01117:0000000000000000000000000000000000000014000000000000000000000000
#01112:00000000001400000000000000000000
#00412:00000000000000130000001300000000
#0041b:0000000000130000
#00418:00000000000013001300000000130000
#00415:00000000000000000013000000001300
#0041a:24
#00410:41
#01718:00000000001300130000000000001300
#01712:00000000000013000000000000000013
#0171b:0013000000000000
#01715:00130013000000000000000000130000
#01618:00000000000000000000000000130013
#01612:0000000000000013
#0161b:0000001300000000
#01615:00000000001300000000000000000000
#01613:0000000000330000
#0161a:0033000000000000
#0271b:00000013000000130000000000000013
#02712:00000000001300000000000000000000
#02715:00001300000000130000000000000000
#02718:13000000001300000000000000000000
#02818:00001300000013000013000000000013
#02812:00000013000000130000000000000000
#0281b:00130000
#02815:23000000001300000000000000000000
#03018:00000000000000130000000000000013
#03013:1414140000000000
#03012:00140000001400000000000014000000
#03014:00000014000000000000000000000000
#03015:00000000000000000013000000000000
#0301a:0000000000140000
#03010:41
#03115:00001300000013000000001300000000
#03118:0000000000131300
#03112:13000000130000000000000000000013
#03114:00000033000000330000000000000000
#03613:0014000000140000
#03617:0000001400000014
#03615:00140014
#03619:2424
#04515:13000000001300000000000000001300
#04518:00001300000000130000000000130013
#0451b:00000000001300000000000000000000
#04512:00000013000000130000000000000000
#04618:00000000000013000013000000001300
#04612:00001300000000130000000000000013
#04615:00000000001300000000130000130000
#0461b:00001300130000000000001300000000
#04812:1300000000330000
#04818:00000000001300130000000000130000
#04815:0000001313000013
#0471b:13
#04716:0000000000000000000014000000000000000014000000000000000024000000
#0471a:00000000000000140000000000000000
#04712:00000014000000000000000000000000
#00012:00000000000000130000000000000000
#00015:00000000000000000033001300000000
#00018:13
#00014:00000033
#00013:00000000000000000000000000330000
#0001b:00003333000000000000000000000000
#00115:00000000000000130000000000000000
#00112:00000000000000000033001300000000
#0011b:13
#00113:00000033
#00114:00000000000000000000000000330000
#00118:00003333000000000000000000000000
#0081b:13
#00812:13
#00818:0013000000000000
#00815:00000013000000000000000000000000
#00912:1300001300000000
#0091b:00000013000000000000000000130000
#00915:00000013
#00914:0000000000130000
#00913:0013
#00918:00000000000000130000000000000000
#00919:00000000000000000023000000000000
#0091a:00000000000000000000002300000000
#01512:00000014000000140000000000001300
#01515:00000000000000000014000000000000
#01518:00000000000000000000000000130000
#0151a:00000000001400000000000000000000
#0121b:13000000000000000000000000000013
#01212:13
#01215:0013000000000000
#01218:00000013000000000000000000000000
#01210:41
#01815:00130000000013000000000000130000
#0181b:00000000000000130000000000000000
#01818:00000000001300000013000000001300
#01812:00000000000000000000000000000013
#01814:0033000000000000
#01819:0000000000330000
#01810:41
#01918:00130000000013000000000000000000
#01915:00001300001300000000000000000000
#0191b:00000013000000000000000000000000
#01912:00000000000000130000240000002400
#0191a:00002424
#02612:26000000000000000013001300000013
#02618:0000000000000033000000000000000000000000130000000000000000000000
#0261b:0000000000000013
#0291b:00001313
#02918:0000000000130000
#02915:13130000
#02912:0013000000000000
#02919:00000000000000000000003300000000
#02913:00000033000000000000000000000000
#04912:00000000001300000000130000001300
#04918:13000000000013000000001300130000
#04915:00000000000000130000000000000000
#0491b:0013
#0501b:1300000000330000
#05015:00000000001300130000000000130000
#05018:0000001313000013
#0071b:0013
#00715:00000033000000000013000000002300
#00718:00000000000013000000130000230000
#00712:13000000000000130000002300000000
#0061b:00000000000000130000001300000000
#00612:2400000000130000
#00615:00000000000013001300000000130000
#00618:00000000000000000013000000001300
#01318:00000013000000000000000000130000
#01315:13000000000013000000000000000013
#0131b:00000000000000130000000000000000
#01314:0013
#01313:0000000000130000
#01312:00000013
#0131a:00000000000000000023000000000000
#01319:00000000000000000000002300000000
#01418:00000000000000130000001300000000
#01415:00000013000013000000000013000013
#0141b:00000000001300000000000000130000
#04312:00000013000000001400001400000000
#04318:0000000013000000000013000000000000000014000000000000000000000000
#0431b:00000000000000130000000000000000
#04315:00130000000013000000000000000000
#0421b:00000000000000000000000000000013
#04215:0000001300000013
#04218:00000000000000130000000000130000
#04212:2424
#04214:0000000000000000000000000000000000000034000000000000000000000000
#04210:41
#02115:00001300000000130000000000000013
#0211b:00130013000000000000000000000000
#0211a:00000000000000001400001400000000
#02114:0000000000000000000000000000000000000014000000000000000000000000
#02118:0000001300000000
#02112:00000000001300000000000000000000
#02218:1300000000000000000000000000000000000024000000000000130000000000
#02215:0000001300000000
#0221b:0000000000133300000000000000130000000000000000000000000000000000
#02212:0024
#02214:00000000000000000000002400000000
#0221a:0000000000000033
#02012:00000013000033000000000000130013
#02018:00000000000000000000002400001300
#02015:00000000001300000000000000000000
#0201a:2424
#02014:0000000000000000000000000000000000000024000000000000000000000000
#0251b:00000013000000000000000000000000
#0251a:00000000000000001400001400000000
#02514:0000000000000000000000000000000000000014000000000000000000000000
#02512:00000000000000130000000000000000
#02518:00130000000013000000000000000000
#02515:00001300001300000000000000000000
#02412:00000000000000000000000000000013
#02418:0000000000000000000000001300000000000034000000000000000013000000
#02415:00000000000000130000000000130000
#0241a:2424
#02410:41
#02315:0000001300000000
#02318:00000000000000130000000000000000
#0231b:00130000000000000000000000000000
#02312:00000000000000002400002400000000
#0231a:0000000000000000000000000000000000000024000000000000000000000000
#02319:0033000000000000
#03215:00001300000013000013000000000013
#0321b:00000013000000130000000000000000
#03212:00130000
#03218:23000000001300000000000000000000
#0321f:11
#03415:00000000000000130000000000000013
#03418:00000014000000000013000000000000
#03412:0000000000140000
#0341a:00140000001400000000000014000000
#03419:1414140000000000
#03518:00001300000013000000001300000000
#03515:0000000000131300
#0351b:13130000
#03519:00000033000000330000000000000000
#03312:00001313
#03315:0000000000130000
#03318:13130000
#0331b:0013000000000000
#03314:00000000000000000000003300000000
#0331a:00000033000000000000000000000000
#0021b:13
#00212:13000000000000000013000000000000
#00218:00001300000000130000000000000000
#00312:13
#0031b:13000000000000000013000000000000
#00315:00001300000000130000000000000000
#03918:0000000013000000000000000000130000000014000000000000000000001300
#03912:00130013000000001400001400000000
#03915:0000001300000000
#0391b:00000000001300000000000000000000
#04015:13000000000000000000000000130000
#04018:00000000000013000000002400000000
#04012:0000000000133300000000000000130000000000000000000000000000000000
#0401a:0024
#04014:0000000000000000000000000000000000000024000000000000000000000000
#04013:0000000000000033
#0381b:00000013000033000000000000130013
#03815:0000000000000013
#03818:0000000000000000000013000000000000000024000000000000000000000000
#03812:2424
#03814:00000000000000000000002400000000
#0381f:21
#04118:0000001300000000
#04115:00000000000000130000000000000000
#04112:0000130000000000000000000000000000000024000000000000000000000000
#0411a:00000000000000002400002400000000
#04114:0033000000000000
#0441b:00000000000000000013001300000013
#04415:0000000000000033000000000000000000000000130000000000000000000000
#04412:0000000000000013
#04418:26
#0511b:00000000001300000000130000001300
#05115:13000000000013000000001300130000
#05118:00000000000000130000000000000000
#05112:0013
#03718:0000002600000026
#03716:00260026
#03714:0026000000260000
#03712:2626
#0045a:14
#0115a:00000000000000640000000044000000
#01157:0000000000000000000000000000000000000024000000000000000000000000
#01758:00000000000000530000000000000000
#01752:00000000000000000000000000000053
#03053:5454540000000000
#03052:00240000002400000000000014000000
#03054:00000024000000000000000000000000
#0305a:0000000000140000
#03158:00000063
#03152:63630000
#03155:0023002300000000
#0475b:53
#0475a:00000000000000640000000000000000
#04756:0000000000000000000000000000000000000024000000000000000000000000
#0055b:53
#04852:53
#04855:0063
#00058:53
#00052:00000000000000630000000000000000
#00055:00000000000000000000002300000000
#0015b:53
#00155:00000000000000530000000000000000
#00152:00000000000000000000002300000000
#00652:14
#00952:63
#0095b:00000053000000000000000000130000
#01552:00000000000000540000000000000000
#01555:00000000000000000024000000000000
#01855:00530000000000000000000000000000
#0185b:00000000000000630000001300000000
#01858:00000000000000000063000000000000
#01852:00000013000000000000000000000000
#0295b:00005353
#02955:53530000
#02958:0000000000530000
#02952:0053000000000000
#0505b:63
#05058:0053
#00752:63
#0085a:00000000000000000000000000130000
#01358:00000053000000000000000000130000
#01355:63
#01253:00000000000000000000000000130000
#02855:00000013
#02652:00000000000000000000005300000000
#04352:00000000000000001400001400000000
#04358:0000000000000000000000000000000000000014000000000000000000000000
#04252:14
#02258:53000000000000000000000000630000
#0225b:0000000000230000000000000000000000000000000000000000000000000000
#0215a:00000000000000001400001400000000
#02154:0000000000000000000000000000000000000014000000000000000000000000
#0255a:00000000000000001400001400000000
#02554:0000000000000000000000000000000000000014000000000000000000000000
#0235b:00530000000000000000000000000000
#02352:00000000000000000000006400000000
#0205a:14
#02055:00000000002300000000000000000000
#02052:00000053000000000000000000000000
#0245a:14
#03452:0000000000140000
#0345a:00240000002400000000000014000000
#03459:6464640000000000
#03458:00000024000000000000000000000000
#03555:00000053
#0355b:53530000
#03558:0023002300000000
#03352:00006363
#03355:0000000000630000
#03358:63630000
#0335b:0063000000000000
#03258:00000013
#04055:63000000000000000000000000530000
#04052:0000000000230000000000000000000000000000000000000000000000000000
#03952:00000000000000001400001400000000
#03958:0000000000000000000000000000000000000014000000000000000000000000
#04152:00630000000000000000000000000000
#0415a:00000000000000000000005400000000
#03858:00000000002300000000000000000000
#0385b:00000063000000000000000000000000
#03852:14
#02755:00000000000000530000000000000000
#02752:00000013
#0275b:00000000000000530000000000000000
#02758:00000013
#0445b:00000000000000000000006300000000
#04558:00000000000000630000000000000000
#04552:00000000000000630000000000000000
#04958:53
#05155:63
#000380:13
#0003b0:00003333002300000000000000000000
#000320:00000000000000130000000000002300
#000350:00000000000000000033003300000000
#000340:00000033
#000330:00000000000000000000000000330000
#0013b0:13
#001380:00003333002300000000000000000000
#001350:00000000000000130000000000002300
#001320:00000000000000000033003300000000
#001330:00000033
#001340:00000000000000000000000000330000
#002350:00000013002300000000000000000000
#002380:00000000000000000000001300000000
#002390:00000033
#0023a0:00000000000000000000000000330000
#0023b0:0000000000000023
#003380:00000013002300000000000000000000
#003350:00000000000000000000001300000000
#003340:00000033
#003330:00000000000000000000000000330000
#003320:0000000000000023
#004350:00000013002300000000000000000000
#0053b0:13
#005380:00000033002300000000000000000000
#006380:00000013002300000000000000000000
#007320:13
#007350:00000033002300000000000000000000
#008390:00000000001300000033003300000000
#0083a0:00000000000033003300000033230000
#0083b0:00000000000000330000000000000000
#008380:0000000000330000
#009320:13
#009350:0023000000000000
#0093b0:00000013000000000000000000000000
#009380:00000000002300000000000000000000
#010350:1323000000000000
#0103b0:0000000013230000
#011350:1323000000000000
#0113a0:00000000000000140000000024000000
#011370:0000000000000000000000000000000000000054000000000000000000000000
#012340:00000000001300000033003300000000
#012330:00000000000033003300000033230000
#012320:00000000000000330000000000000000
#012350:0000000000330000
#013350:13
#013320:0023000000000000
#013380:00000013000000000000000000000000
#0133b0:00000000002300000000000000000000
#014380:1323000000000000
#014320:0000000013230000
#015380:1323000000000000
#015320:00000000000000140000002400000000
#015350:00000000000000000054000000000000
#015380:00000000000000000000000000000013
#0163b0:00330000000000000000000000000000
#0163a0:0033000000000000
#016380:00000023000000000000000000000000
#016350:00000000000000130000002300000000
#016320:00000000000000000033000000000000
#016330:0000000000330000
#017380:00000000000000130000000000000000
#0173b0:00000000000000000000002300000000
#017320:00000000000000000000000000000013
#018350:00330000000000000000000000000000
#018340:0033000000000000
#018320:00000023000000000000000000000000
#0183b0:00000000000000130000002300000000
#018380:00000000000000000033000000000000
#018390:0000000000330000
#020320:00000013000033230000000000000000
#020350:00000000003300000000000000000000
#022380:13000000002300000000000000000000
#0223b0:0000000000533300000000000000000000000000000000000000000000000000
#022380:00000000000000000000000000130000
#0223a0:0000000000000033
#0223b0:00000000000000000000000000000033
#0233b0:00330000000000000000000000000000
#023390:0033000000000000
#023380:00000033002300000000000000000000
#023320:00000000000000000000001400000000
#023350:0000000000000024
#024320:00000013002300000000000000000000
#0243a0:0014
#024380:0000000000000000000000000000000000000034000000000000000000000000
#024370:00000000000000000000002400000000
#0263b0:00001300000000230000000000000000
#026380:0000000000000033330000000000000000000000000000000000000000000000
#026390:00000000003300000000000000000000
#0263a0:0000003300000000
#026320:00000000000000000000001300000000
#026350:00000000000000000000000000230000
#027350:00000000000000130000000000000000
#027320:00000023
#0273b1:00000000000000130000000000000000
#027381:00000023
#028351:0000000000132300
#029351:13330000
#029321:0033002300000000
#029331:00000033000000000000000000000000
#0293b1:00001333
#029381:0000000000330023
#029391:00000000000000000000003300000000
#030331:1434342400000000
#030321:00540000003400000000000000000000
#030341:00000034000000000000000000000000
#031321:13332300
#031351:0033003300000000
#031341:00000033000000330000000000000000
#031381:00000013
#0313b1:0000000000000023
#032381:0000000000132300
#033381:13330000
#0333b1:0033002300000000
#0333a1:00000033000000000000000000000000
#033321:00001333
#033351:0000000000330023
#033341:00000000000000000000003300000000
#034391:1434342400000000
#0343a1:00540000003400000000000000000000
#034381:00000034000000000000000000000000
#0353b1:13332300
#035381:0033003300000000
#035391:00000033000000330000000000000000
#035351:00000013
#035321:0000000000000023
#0383b1:00000013000033230000000000000000
#038381:00000000003300000000000000000000
#040351:13000000002300000000000000000000
#040321:0000000000533300000000000000000000000000000000000000000000000000
#040351:00000000000000000000000000130000
#040331:0000000000000033
#040321:00000000000000000000000000000033
#041321:00330000000000000000000000000000
#041341:0033000000000000
#041351:00000033002300000000000000000000
#0413a1:00000000000000000000001400000000
#041371:0000000000000024
#0423b1:00000013002300000000000000000000
#042321:0014
#042341:0000000000000000000000000000000000000034000000000000000000000000
#042351:00000000000000000000002400000000
#044321:00001300000000230000000000000000
#044351:0000000000000033330000000000000000000000000000000000000000000000
#044341:00000000003300000000000000000000
#044331:0000003300000000
#0443b1:00000000000000000000001300000000
#044381:00000000000000000000000000230000
#045381:00000000000000130000000000000000
#0453b1:00000000000000000000002300000000
#045320:00000000000000130000000000000000
#045350:00000000000000000000002300000000
#0473b0:13
#047380:0023000000000000
#0473a0:00000000000000140000000024000000
#047360:0000000000000000000000000000000000000054000000000000000000000000
#048320:13
#048350:00000023000000000000000000000000
#048350:0013
#048320:00000000000000000000332300000000
#049380:13
#0493b0:00000023000000000000000000000000
#0503b0:13
#050380:00000023000000000000000000000000
#050380:0013
#0503b0:00000000000000000000332300000000
#051350:13
#051320:00000023000000000000000000000000
