This file was generated by Ched 2.7.0.0.
#TITLE ""
#ARTIST ""
#DESIGNER ""
#DIFFICULTY 0
#PLAYLEVEL
#SONGID ""
#WAVE ""
#WAVEOFFSET 0
#JACKET ""
#REQUEST "ticks_per_beat 480"
#00002: 4
#BPM01: 95
#00008: 01
#TIL00: ""
#HISPEED 00
#MEASUREHS 00
#0321f:11
#03212:00000013001300130000140014000000
#03216:13001400140014001414001400000013
#0321a:00000000000000140000140000000000
#0321b:23130000
#00412:00001313000013000000001300130000
#0041b:23000000001300000000130000000000
#00417:00000013000000000000001300130000
#00415:2613
#00416:0000000000000013
#00418:00000000000000130013000000000000
#00410:41
#0061b:00001313000013000000001300130000
#00612:23000000001300000000130000000000
#00616:00000013000000000000001300130000
#00618:0013
#00617:0000000000000013
#00615:26000000000000130013000000000000
#03612:00001212
#0361b:0012001200000000
#03613:12120000
#03616:2414141400000000
#03615:0000000026161616
#0361c:0000000000120012
#0371b:0000000000000013
#03712:0000000000001329
#0371a:0000000000130000
#03713:0000000013270000
#03719:0000001300000000
#03714:0000132500000000
#03718:2313000000000000
#03715:1323000000002900
#03716:0027
#03717:00250000
#01812:13001400130000230013001400000013
#0181a:00000014000000000000140000000000
#0181b:00130000000000001300000013000000
#01817:00000000001300130000000000000000
#01814:0000001400000013
#01816:00000000000000000000000000130024
#01810:41
#0161b:13000000000000230013000000000013
#01612:00130000000000001300141400130000
#01616:00000000000000130000000000000024
#01618:0000001300000000
#01615:00000000001300000000000000000000
#01619:0000000000000013
#01617:00000000000000000000000000130000
#0161a:00001414000000000000000000000000
#04013:0000000000000000000000000000000000000000001400000000000000000000
#04014:00000000000000000014000000000000
#04019:0000000000000013
#04016:13000000000000000000002600000013
#0401b:13000000000013000000000000000013
#04017:0000130000000000000000000000000000000026000000000000130000000000
#04012:00130000130000130000000000000000
#04018:00000013001300002600000000000000
#04015:0000001300000000
#03818:0000000000000000000000000000000000000000001400000000000000000000
#03819:00000000000000000014000000000000
#03817:00000000130000000000000000000017
#03812:2c000013001400000000002600130013
#0381a:00000000000000140000000000000000
#03816:0014001400000000
#0381b:00000013000000000000000000000000
#03815:0000000000000012
#0381f:21
#03813:0000000000000000000000000000000000000026000000000000000000000000
#03814:0026
#03018:1300000000130000
#03012:0000001300000000001333000000130000000000000000001300000000000000
#03016:000000000000000000000000000000000000000000000000000000000000000000000014140000000000000000000000000000000000000000000000000000000000000000000000000000000000000000000000000000000000000000000000000000000000000000000000000000000000000000000000000000000000000000000000000000000000000000000000000000000000000000000000000000000000000000000000000000000000000000000000000000000000000000000000
#0301b:0000001300000000001333000000130000000000000000001300000000000000
#03015:13000000000000000016130000000016
#03013:0033330000000000
#0301a:0033330000000000
#03010:41
#0501c:0000001200000000000000000000000012000000000000000000000012000000
#05012:12140014
#05018:12000000001200000000001200000000
#05016:00000012000000000000000000000000
#0501a:00000000000000120000000000120000
#05014:0000001200000000
#05112:00140014
#05118:12000000001200000000001200120000
#05116:00000012000000001200000000001200
#0511a:00000000000000120000000000000000
#05114:0000001200000000
#04812:0000001200000000000000000000000012000000000000000000000012000000
#0481a:0000141200001400
#04816:12000000001200000000001200000000
#04818:00000012000000000000000000000000
#04814:00000000000000120000000000120000
#0481c:12
#0491a:0000141200001400
#04916:12000000001200000000001200120000
#04918:00000012000000001200000000001200
#04914:00000000000000120000000000000000
#03418:1300000000130000
#03412:0000001300000000001333000000130000000000000000001300000000000000
#03416:000000000000000000000000000000000000000000000000000000000000000000000014140000000000000000000000000000000000000000000000000000000000000000000000000000000000000000000000000000000000000000000000000000000000000000000000000000000000000000000000000000000000000000000000000000000000000000000000000000000000000000000000000000000000000000000000000000000000000000000000000000000000000000000000
#0341b:0000001300000000001333000000130000000000000000001300000000000000
#03415:13000000000000000016130000000016
#03413:0033330000000000
#0341a:0033330000000000
#0111a:00140014
#01112:00000000140000000013000014000000
#0111b:00000000000000000013000000001300
#01118:00000000001300120000000000000000
#01116:00000014000000120000000000000013
#01115:00000000001300000000000000000000
#01117:13
#04116:000000000000000000000000000000000000000000000000000000000000000000000000130000000000000000000000000000000000000000000000000000000000000000000000000000000000000000000000000000000000000000000000000000000000000000000000140000000000240000000000000000000000000000000000000000000000000000000000000000000014140000000000000000000000000000000000000000000000000000000000000000000000000000000000
#0411b:00000013000000000000000000000000
#04112:00000000001300132400002400000000
#04117:0000001300000000
#04114:0013000000000000
#0411a:00000000000000002400002400000000
#02316:000000000000000000000000000000000000000000000000000000000000000000000000000000000000000000000000000000000000000000000000000000000000000000000000130000000000000000000000000000000000000000000000000000000000000000000000140000000000240000000000000000000000000000000000000000000000000000000000000000000014140000000000000000000000000000000000000000000000000000000000000000000000000000000000
#02312:00000013000000002400002400000000
#0231b:00000000001300130000000000000000
#02317:00000013000000000000000000000000
#02319:0013000000000000
#0231a:00000000000000002400002400000000
#01712:0000000000001300000000000000000000000014000000000000000000000000
#01717:1300000000000000000013000000000000000013000000000000000000000000
#01716:00130024130000240000000000130013
#01718:0000000000000014
#0171b:00000000000000130000000000000023
#01719:0000001300000000
#01714:0013000000000000
#01216:13000000001300000013001300000000
#01212:0000000013001300000000000000000013000000000000000016000013000000
#01214:00000000000000000000130000000013
#01218:00000000000013001300000013160000
#01217:00000013000000000000000000000000
#0121b:1300000000130000
#0121a:00000000000000130000000000000000
#01210:41
#00817:13000000001300000013001300000000
#0081b:00001313000000001300000000000000
#00819:00000000000000000000130000000013
#00812:13000000000000000000130000160000
#00816:00000013000000000000000000000000
#00818:0000000000000000000000000000000000000000000000000016000000000000
#00815:0000001313001300
#00813:00000000000000130000000000000000
#01516:13000014000000120000000000000000
#0151a:00140000
#01518:00000000001300120000000000130000
#01515:00000000001300000000000000001300
#01512:00000000140000000013000000000023
#01517:00000000000000000000000000000013
#0151b:00000000000000000013000000000000
#01417:0013
#01412:13000000001300000000000000130000
#0141b:00000000001300000000000000130000
#01418:00000013000013000000000013000000
#01415:00000000130000130000001300000000
#01416:00000000000000000000000000000013
#0191a:00000000000000130000000000000000
#01918:0000001300000000
#01916:13000024001300000000130000001300
#01917:00130000130000001300000013000000
#0191b:00000013000000000000000000000000
#01919:0013000000250025
#01912:00002525
#04516:00130000000000000000000000000000
#04518:13000013000000000000000000000000
#0451b:00001300001300000000000013000000
#04512:13000000001300000000000013000000
#04515:00000013000000000026002600120000
#04519:00000000000000000000000000000012
#04517:0000000000000012
#04416:00000000130000130013000000000013
#0441b:00001300000000130000000000000000
#04417:0000000000000013000000000000000000000000000000000000000000000000
#04414:0000000000130013
#04418:0000001300000000
#04412:2c001300001300000000000000000000
#02417:00001313000000130000000000000000
#02416:00000000001300000000000000130013
#02412:26000013000000000000002500000000
#02419:0000001300000012
#0241b:00000000001300000000000000000013
#02418:26
#0241a:0024
#02414:0025
#02413:0000000000000000000000000000000000000025000000000000000000000000
#02410:41
#0281a:0000000000141400
#02816:00001400140014001414001400000000
#02812:23000000130000140000140000000000
#0281b:00000013001300130000000000000000
#02817:13000000000000000000000000000013
#03512:00160000230013000000000013000000
#03517:00000000000000000000131313000000
#0351b:2313000013000000
#03515:16000016160000160000000000000000
#03518:00000000001600000000000000000000
#0311b:00000000230013000000000013000013
#03116:00000000000000000000131313000000
#03112:23001300001600001300000000000000
#03115:16000016160000160000000000000000
#03118:00160000000000000000000000000000
#02016:00001313000000130000002600000000
#02013:0000000000000000000000000000000000000000001400000000000000000000
#02014:00000000000013000014000000000000
#02017:0000000000000000000013000000000000000026000000000000130000001300
#02012:26000000001300000000000000000013
#02015:0000000000000012
#0201b:00000013000000000000000000000000
#02018:2626
#0131b:00000000001300000000000000001300
#01312:0013000000001400
#0131a:0000000000000000000000000000000000000000000000000014000000000000
#01319:00000000000013000000000000000013
#01316:13000000000000000024002400000000
#01317:00000013000000130000000000000000
#01315:00000000000000000000000000160000
#00716:00000013000000000000000000000000
#0071b:13000013001300001300001300000000
#00712:0013130013000000
#00717:00130000000000000000000000220000
#00718:0000001300130000
#00715:00000000000000130013000022000000
#00719:0000000000000022
#00713:00000000000000000000002200000000
#00517:00000013000000000000000000220000
#00512:13000013001300001300001300000000
#0051b:00001300130000001300002200000000
#00516:00130000000000000000000000000000
#00515:0000001300130022
#00518:00000000000000130013000000000000
#00519:00000022
#03916:0000000000000000000000001400000014000000000000000014000000001400
#03912:00000017001400001400001400000000
#0391a:0000000000000000000000000000140000000014000000000000000014000000
#0391b:00130013000000000000000000000000
#03919:0012000000000000
#04216:0014131400000000
#0421b:00000013000000000000000000130013
#04212:2c000013000000140000002500000017
#0421a:00000000001400002400000000000000
#04219:0000000000000012
#04214:0025
#04213:0000000000000000000000000000000000000025000000000000000000000000
#04210:41
#04316:0000000000000000000000001400000014000000000000000014000000000000
#0431a:00000000001400001400001400000000
#04312:0000130000001300000000000000140000000014000000000000000014000000
#04317:00000017000000000000000000000000
#04315:0012000000000000
#0471b:13000013001300000013000000000000
#04716:13001400140000120000000000000000
#04712:00000013001300000013000015000000
#04719:00000015
#04718:00000000000000120000000000000000
#04717:0000000000000022
#02712:00001300001300000000000015000013
#02717:00130000000000000000000000000000
#02719:00000015
#02715:13000013000000000026002600000000
#02718:00000013000000000000000000000000
#0271b:13000000001300000000000000000000
#02512:0000000000001300000013000000130000000014000000000014000000000000
#02516:0000000000000000000000000000000014000014000014000000000000000000
#0251a:00000000000000001400001400001400
#02517:00130013000013000000000000000000
#02515:0012000000000000
#0091b:0013000000000000
#00912:0000000000000000000013000000000000000000000000000014000000000000
#00914:00000000000013000000000000000013
#0091a:00000014
#00917:13
#00916:00000013000000130024002400000000
#00915:00000000000000000000000000160000
#04618:00000000000000000012000000000000
#04616:0000000000120000
#04613:00000000000000000000000000000012
#0461b:00000000000000130000001300000000
#04615:00000000000000120000000000001200
#04612:00000000000000000013000000000000
#04614:00000000000000000000001200000000
#04617:00001300000012000000000000120000
#04619:00000000001200000000000000000000
#03316:00000000000013180000000014000000
#03312:00000018230000000000001823000000
#03317:0013000000130000
#0331b:2323
#02916:00001318000000000000131814000000
#02912:23000000000000182300000000000000
#02917:0000001300000000
#0291b:00230023
#02617:00000000130000130013000000000013
#02612:2c001300000000130000000000000000
#02616:0000000000000013000000000000000000000000000000000000000000000000
#02619:0000000000130013
#02615:0000001300000000
#0261b:00001300001300000000000000000000
#0221b:00130000130000130000000000000000
#02214:0000000026000013
#02218:0000000000000000000000001300000000000000001400000000000000000000
#02219:00000000000000000014000000000000
#02212:13000000000013000000002600000013
#02215:00000013001300000000000000000000
#02217:13000000000000000000000000000013
#02216:00130000000000000000000000130000
#02213:0000000000000000000000000000000000000026000000000000000000000000
#02116:0000130000001300000000001300000014000014000014000000000000000000
#0211a:0000000000000000000000000000000000000014000000000014000000000000
#0211b:00000013001300130000000000000000
#02112:00000000000000001400001400001300
#02117:00000000000000000000000000000013
#02119:0012000000000000
#01016:0013
#0101b:13000000001300000000000000130000
#01012:00000000001300000000000000130000
#01015:00000013000013000000000013000000
#01018:00000000130000130000001300000000
#01017:00000000000000000000000000000013
#00318:00000000000000120012000000120000
#00315:00000000001200001200000012001200
#00312:00001212000000120000001200000000
#00316:12
#0031b:0000000000120012
#0031c:12
#00216:00000000000000120012000000120000
#00219:00000000001200001200000012001200
#0021c:00001212000000120000001200000000
#00218:12
#00213:0000000000120012
#00212:12
#00116:12
#00118:00000012001200000012000000000000
#0011c:00000000000000120000000000000000
#00112:00001212000000000012000000000000
#0011a:0000000000000012
#00117:00000000000000000000000000120000
#00114:00000012
#00018:12
#00016:00000012001200000012000000000000
#00012:00000000000000120000000000000000
#0001c:00001212000000000012000000000000
#00014:0000000000000012
#00017:00000000000000000000000000120000
#0001a:00000012
#02852:00000000000000540000540034000000
#0285a:0000000000444400
#02856:00000000000000002400002400000000
#02857:53
#0355b:0000000000000013
#03556:0000000000000013
#03552:00260000000000000000000063000000
#03557:00000063
#03558:00000000002600000000000000000000
#03555:66660000
#03152:00000000002600000000000000001300
#03157:0000000000000013
#0315b:00000053
#03156:00000053
#03155:56560000
#03158:00260000000000000000000000000000
#0325a:00000000000000640000640044000000
#03252:0000000000343400
#03256:63000000000000002400002400000000
#03956:0000000000000000000000000000000044000034000044000024000000000000
#03952:00000017000000006400006400000000
#0395a:0000000000000000000000000000000000000064000000000000000000000000
#0395b:00000023000000000000000000000000
#04356:0000000000000000000000000000000034000044000034000024000000000000
#0435a:00000000000000005400005400000000
#04352:0000000000002300000000000000000000000054000000000000000000000000
#04357:00000017000000000000000000000000
#0125b:63000000001300000000000000000000
#01257:00001363000000000000000000000000
#01258:00000000000000000000000000160000
#04558:00000053000000130000000000000000
#04555:00000063000000130000000000000000
#04556:00230000000000000000000000000000
#04552:63000000006300000000000000000000
#0455b:00000000005300000000000000000000
#03357:0000000000000012
#03356:00000064
#02957:0000000000000012
#02956:00000054
#00852:53000000001300000000000000160000
#00856:00001353000000000000000000000000
#02758:00000053000000130000000000000000
#02755:00000063000000130000000000000000
#02757:00230000000000000000000000000000
#0275b:53000000005300000000000000000000
#02752:00000000006300000000000000000000
#04056:63000000000000000000001600000063
#04057:0000230000000000000000000000000000000016000000000000000000000000
#04058:0016
#04052:00230000000000000000000000000000
#0405b:63
#03852:1c000000000000000000001600000023
#03853:0000000000000000000000000000000000000016000000000000000000000000
#03854:0016
#03857:00000000230000000000000000000017
#0385b:00000053000000000000000000000000
#02458:16
#02454:0035
#02452:16000063000000000000003500000000
#02453:0000000000000000000000000000000000000035000000000000000000000000
#02456:00000000002300000000000000000023
#0245b:00000000000000000000000000000013
#02058:1616
#02056:00000000000000000000001600000000
#02057:0000000000000000000023000000000000000016000000000000000000002300
#02052:16000000000000000000000000000013
#0205b:00000053000000000000000000000000
#0415a:00000000000000000000005400000000
#04152:00000000000000000000006400000000
#04156:000000000000000000000000000000000000000000000000000000000000000000000000000000000000000000000000000000000000000000000000000000000000000000000000000000000000000000000000000000000000000000000000000000000000000000000000000000000000000000000000000000000000000000000000000000000000000000000000000000000024240000000000000000000000000000000000000000000000000000000000000000000000000000000000
#0415b:00000063000000000000000000000000
#04254:0035
#04252:1c000063000000000000003500000017
#04253:0000000000000000000000000000000000000035000000000000000000000000
#04256:00230000
#0425b:00000000000000000000000000000023
#01756:00000000230000640000000000000063
#01752:0000000000005300000000000000000000000024000000000000000000000000
#01757:2300000000000000000000000000000000000023000000000000000000000000
#0175b:00000000000000630000000000000000
#02352:00000053000000000000006400000000
#0235a:00000000000000000000005400000000
#02356:000000000000000000000000000000000000000000000000000000000000000000000000000000000000000000000000000000000000000000000000000000000000000000000000000000000000000000000000000000000000000000000000000000000000000000000000000000000000000000000000000000000000000000000000000000000000000000000000000000000024240000000000000000000000000000000000000000000000000000000000000000000000000000000000
#00655:16
#00652:23
#0065b:00000023000000000000000000000000
#0045b:23
#00455:16
#02252:53000000000000000000001600000000
#02253:0000000000000000000000000000000000000016000000000000000000000000
#02254:0016
#0225b:00230000000000000000000000000000
#02257:53000000000000000000000000000053
#02256:00230000000000000000000000000000
#0375b:0000000000000013
#03752:00000013
#0375a:0000000000130000
#03753:0013
#03759:0000001300000000
#03754:00130000
#03758:0013000000000000
#03755:13
#01852:23003400000000000053003400000053
#0185a:00000044000000000000440000000000
#0185b:00630000000000002300000000000000
#01857:00000000000000530000000000000000
#0165b:23000000000000000063000000000063
#01652:00530000000000002300001400000000
#01656:00000000000000630000000000000000
#0165a:00000014000000000000000000000000
#03058:6300000000430000
#03052:0000002300000000002300000000000000000000000000003300000000000000
#03056:000000000000000000000000000000000000000000000000000000000000000000000054640000000000000000000000000000000000000000000000000000000000000000000000000000000000000000000000000000000000000000000000000000000000000000000000000000000000000000000000000000000000000000000000000000000000000000000000000000000000000000000000000000000000000000000000000000000000000000000000000000000000000000000000
#0305b:0000002300000000002300000000000000000000000000004300000000000000
#03055:5300000000330000
#0505c:0000002200000000000000000000000062000000000000000000000000000000
#05058:62
#05156:0000000062000012
#05158:62
#04852:0000002200000000000000000000000052000000000000000000000000000000
#04856:52
#04958:0000000052000012
#04956:52
#03458:6300000000430000
#03452:0000002300000000002300000000000000000000000000003300000000000000
#03456:000000000000000000000000000000000000000000000000000000000000000000000054640000000000000000000000000000000000000000000000000000000000000000000000000000000000000000000000000000000000000000000000000000000000000000000000000000000000000000000000000000000000000000000000000000000000000000000000000000000000000000000000000000000000000000000000000000000000000000000000000000000000000000000000
#0345b:0000002300000000002300000000000000000000000000004300000000000000
#03455:5300000000330000
#0115b:00000000000000000023000000000000
#01158:00000000001300520000000000000000
#01152:00000000000000000023000000000000
#01156:00000000000000620000000000000000
#01155:00000000001300000000000000000000
#01157:23
#01556:23000000000000620000000000000000
#01558:00000000001300520000000000000000
#01555:00000000001300000000000000000000
#01557:00000000000000000000000000000053
#0155b:00000000000000000023000000000000
#01552:00000000000000000023000000000000
#01457:0023
#01452:63
#00756:00000063000000000000000000000000
#00757:00230000000000000000000000000000
#0075b:63
#00752:00230000
#00557:00000053000000000000000000000000
#00556:00230000000000000000000000000000
#00552:53
#0055b:00230000
#02552:0000000000001300000000000000000000000054000000000024000000000000
#02556:0000000000000000000000000000000054000044000054000000000000000000
#0255a:00000000000000004400004400000000
#02557:00000023000000000000000000000000
#01957:00230000
#0195b:00000063000000000000000000000000
#01956:23
#04752:00000000000000000023000000000000
#04756:53000000000000620000000000000000
#04758:00000000000000520000000000000000
#0475b:00000000000000000023000000000000
#01355:00000000000000000000000000160000
#02156:0000000000002300000000000000000064000034000064000000000000000000
#0215a:0000000000000000000000000000000000000064000000000024000000000000
#0215b:00000013000000000000000000000000
#02152:00000000000000003400003400000000
#01056:0023
#0105b:53
#00355:0022
#00352:00000000000000520000000000000000
#0035b:0000000000220000
#00358:00000000000000000052000000000000
#0035c:62
#00259:0022
#0025c:00000000000000620000000000000000
#00253:0000000000220000
#00256:00000000000000000062000000000000
#00252:52
#00158:00000000000000000062000000000000
#0015c:00000000000000620000000000000000
#00152:00000000000000000062000000000000
#00056:00000000000000000052000000000000
#00052:00000000000000520000000000000000
#0005c:00000000000000000052000000000000
#00955:00000000000000000000000000160000
#04657:0063000000000000
#000320:1222000000000000
#0003c0:00000000001200220000000000000000
#000321:00000000000000120000002200000000
#000361:00000000000000000032000000000000
#0003c0:00000000000000000012000000000000
#000380:00000000000000000000002200000000
#0013c0:1222000000000000
#001320:00000000001200220000000000000000
#0013c1:00000000000000120000002200000000
#001381:00000000000000000032000000000000
#001320:00000000000000000012000000000000
#001360:00000000000000000000002200000000
#002320:12
#002360:0022000000000000
#002340:00000000122200000000000000000000
#0023c0:00000000000000120022000000000000
#002390:0052
#002361:00000000000000000012002200000000
#002331:0000000000520000
#0033c1:12
#003381:0022000000000000
#0033a1:00000000122200000000000000000000
#003321:00000000000000120022000000000000
#003351:0052
#003380:00000000000000000012002200000000
#0033b0:0000000000520000
#0043b0:13
#004370:0023000000000000
#004320:00000013000000000000000000000000
#004360:00000000002300000000000000000000
#0043b0:0000000000000013
#0053b0:23
#005321:1323000000000000
#005361:00530000000000000000000000000000
#005371:00000013002300000000000000000000
#0053b1:00530000
#006321:13
#006361:0023000000000000
#0063b1:00000013000000000000000000000000
#006371:00000000002300000000000000000000
#006321:0000000000000013
#007321:23
#0073b0:1323000000000000
#007370:00530000000000000000000000000000
#007360:00000013002300000000000000000000
#007320:00530000
#008320:13
#008360:0023000000000000
#008360:00000013000000000000000000000000
#008320:00000000002300000000000000000000
#009320:13
#009360:0023000000000000
#0093b0:00000013000000230000000000000000
#009370:00000000003300000000000000000000
#009390:0000003300000000
#0093b0:00000000000000001323000000000000
#009320:00000000000000000000132300000000
#010320:1424000000000000
#0103b1:13
#010371:0023000000000000
#0103a1:0000000014240000
#010360:0013
#010320:0000000000230000
#011320:1424000000000000
#011371:13
#0113b1:0023000000000000
#011381:00000000000000120000002200000000
#0113b1:00000000000000000033000000000000
#011360:00000000000000120000002200000000
#011320:00000000000000000033000000000000
#0123b0:13
#012370:0023000000000000
#012370:00000013000000000000000000000000
#0123b0:00000000002300000000000000000000
#0133b0:13
#013370:0023000000000000
#013320:00000013000000230000000000000000
#013360:00000000003300000000000000000000
#013340:0000003300000000
#013320:00000000000000001323000000000000
#0133b0:00000000000000000000132300000000
#0143a0:1424000000000000
#014321:13
#014361:0023000000000000
#014321:0000000014240000
#014370:0013
#0143b0:0000000000230000
#0153a0:1424000000000000
#015361:13
#015321:0023000000000000
#015381:00000000000000120000002200000000
#0153b1:00000000000000000033000000000000
#015360:00000000000000120000002200000000
#015320:00000000000000000033000000000000
#015370:00000000000000000000000000000013
#0163b0:53
#016370:00230000000000000000000000000000
#016321:00130000000000000000000000000000
#016361:00000023000000000000000000000000
#016361:00000000000000130023000000000000
#016321:0053
#0163b0:00000000000000000013000000000000
#016370:00000000000000000000002300000000
#0163b0:00000000000000000000000000000013
#017370:53
#0173b0:00230000000000000000000000000000
#017320:00000013002300000000000000000000
#017360:00530000
#017360:00000000000000140000000024000000
#017320:0000000000000000000000000000000000000054000000000000000000000000
#0173b1:00000000000000130000000023000000
#017371:0000000000000000000000000000000000000053000000000000000000000000
#017361:00000000000000000000000000000013
#018321:53
#018361:00230000000000000000000000000000
#0183b0:00130000000000000000000000000000
#018370:0023000000000000
#018370:00000000000000130023000000000000
#0183b0:0053
#018321:00000000000000000013000000000000
#018361:0000000000230000
#018321:00000000000000000000000000000013
#019361:53
#019321:00230000000000000000000000000000
#0193b1:00000013002300000000000000000000
#019371:00530000
#0203b1:00000013000000230000000000000000
#020371:00000000005300000000000000000000
#020371:00000000000000000000000000000013
#0213b1:00230000000000000000000000000000
#021361:00000013000000000000000000000000
#021321:00000000002300000000000000000000
#021361:00000000000000001400003400002400
#0213a1:0000000000000000000000000000000000000034000000000054000000000000
#022371:1323000000000000
#0223b1:00530000000000000000000000000000
#022320:1323000000000000
#022360:00530000000000000000000000000000
#0223b0:00000000000000000000000000130000
#022370:00000000000000000000000000000033
#0233b0:53230000000000000000000000000000
#023361:00130000532300000000000000000000
#023321:00000033000000000000000000000000
#0233a1:00000000000000000000001400002400
#023361:000000000000000000000000000000000000000000000000000000000000000000000000000000000000000000000000000000000000000000000000000000000000000000000000000000000000000000000000000000000000000000000000000000000000000000000000000000000000000000000000000000000000000000000000000000000000000000000000000000000054000000000000000000000000000000000000000000000000000000000000000000000000000000000000
#023320:00000000000000000000001400002400
#023360:0000000000000000000000000000000000000000000000000054000000000000
#024320:00000013000000230000000000000000
#024360:00000000005300000000000000000000
#0243a0:0014
#024370:0000000000000000000000000000000000540000000000000000000000000000
#024390:0000000000000000000000000000000000000034000000000000000000000000
#024360:0000000000540000
#024380:00000000000000000000002400000000
#024360:00000000000000000000000000000013
#025320:00230000000000000000000000000000
#025370:00000013000000000000000000000000
#0253b0:00000000002300000000000000000000
#025360:00000000000000001400003400002400
#025320:0000000000000000000000000000000000000034000000000054000000000000
#026320:00000000000000000013000000000000
#026360:00000000000000000000002300000000
#0263b1:00000000000000000000001300230000
#026360:00000000000000000000000000130000
#026320:00000000000000000000000000000023
#0273b0:1323000000000000
#027370:00530000000000000000000000000000
#027380:00000013000000230000000000000000
#0273b0:00000000003300000000000000000000
#027351:00000013000000230000000000000000
#027321:00000000003300000000000000000000
#028371:13
#0283b1:0023000000000000
#028321:00000000000000140024000000000000
#028361:0054
#028321:0000000000142400
#028361:00000000000000000000005400000000
#029371:13
#0293b1:0023000000000000
#029361:00130000
#029321:0000002300000000
#029371:0013
#0293b1:0000000000230000
#029361:00000014
#029371:0000000000000000000000000000000000000000000000000052000022000000
#030381:13
#0303b1:0000005300000000000000000000000000000000000000000000000000000000
#0303a1:0033000000000000
#030361:000000000000000000000000000000000000000000000000000000000000000000000054000000000000000000000000000000000000000000000000000000000000000000000000000000000000000000000000000000000000000000000000000000000000000000000000000000000000000000000000000000000000000000000000000000000000000000000000000000000000000000000000000000000000000000000000000000000000000000000000000000000000000000000000
#030331:00330000
#030321:0000000000000000005333000000000000000000000000000000000000000000
#030351:0000002300000000
#030350:13
#030320:0000005300000000000000000000000000000000000000000000000000000000
#030330:0033000000000000
#030360:00000034000000000000000000000000
#0303a0:00330000
#0303b0:0000000000000000005333000000000000000000000000000000000000000000
#030380:0000002300000000
#031350:1626000000000000
#031380:00560000000000000000000000000000
#031350:0000162600000000
#031320:00000000005600000000000000000000
#0313b0:00001333
#031370:00000000000000000000000000532300
#031361:00000013
#031321:00000000000000000000000000532300
#032361:13
#032321:0023000000000000
#0323a1:00000000000000140024000000000000
#032361:0054
#0323a1:0000000000142400
#032361:00000000000000000000005400000000
#033361:13
#033321:0023000000000000
#033371:00130000
#0333b1:0000002300000000
#033361:0013
#033321:0000000000230000
#033361:00000014
#033371:0000000000000000000000000000000000000000000000000052000022000000
#034381:13
#0343b1:0000005300000000000000000000000000000000000000000000000000000000
#0343a1:0033000000000000
#034361:000000000000000000000000000000000000000000000000000000000000000000000054000000000000000000000000000000000000000000000000000000000000000000000000000000000000000000000000000000000000000000000000000000000000000000000000000000000000000000000000000000000000000000000000000000000000000000000000000000000000000000000000000000000000000000000000000000000000000000000000000000000000000000000000
#034331:00330000
#034321:0000000000000000005333000000000000000000000000000000000000000000
#034351:0000002300000000
#034350:13
#034320:0000005300000000000000000000000000000000000000000000000000000000
#034330:0033000000000000
#034360:00000034000000000000000000000000
#0343a0:00330000
#0343b0:0000000000000000005333000000000000000000000000000000000000000000
#034380:0000002300000000
#035350:1626000000000000
#035320:00560000000000000000000000000000
#035350:0000162600000000
#035380:00000000005600000000000000000000
#035320:00001333
#035360:00000000000000000000000000532300
#035371:00000013
#0353b1:00000000000000000000000000532300
#0383b1:00000013002300000000000000000000
#038371:00530000
#038321:00000000000000000000000000000013
#039361:00230000000000000000000000000000
#0393b1:00000013000000000000000000000000
#039371:00000000002300000000000000000000
#039321:0014
#039361:0000000000000000000000000000000000000024000000000000000000000000
#0393a0:0000000000000000000000000000000000000014000000000000000000000000
#039360:00000000000000000000002400000000
#039321:00000000000000000000001400002400
#039361:0000000000000000000000000000000000000000000000000054000000000000
#040361:1323000000000000
#040321:00530000000000000000000000000000
#0403b0:1323000000000000
#040370:00530000000000000000000000000000
#040320:00000000000000000000000000130000
#040360:00000000000000000000000000000033
#041320:00230000000000000000000000000000
#041371:00130000002300000000000000000000
#0413b1:00000033000000000000000000000000
#041321:00000000000000000000001400002400
#041361:000000000000000000000000000000000000000000000000000000000000000000000000000000000000000000000000000000000000000000000000000000000000000000000000000000000000000000000000000000000000000000000000000000000000000000000000000000000000000000000000000000000000000000000000000000000000000000000000000000000054000000000000000000000000000000000000000000000000000000000000000000000000000000000000
#0413a0:00000000000000000000001400002400
#041360:0000000000000000000000000000000000000000000000000054000000000000
#042320:00000013002300000000000000000000
#042360:00530000
#0423a0:0014
#042370:0000000000000000000000000000000000540000000000000000000000000000
#042390:0000000000000000000000000000000000000034000000000000000000000000
#042360:0000000000540000
#042380:00000000000000000000002400000000
#0423b0:00000000000000000000000000000013
#043370:00230000000000000000000000000000
#043320:00000013000000000000000000000000
#043360:00000000002300000000000000000000
#0433a0:0014
#043360:0000000000000000000000000000000000000024000000000000000000000000
#043321:0000000000000000000000000000000000000014000000000000000000000000
#043361:00000000000000000000002400000000
#0433a0:00000000000000000000001400002400
#043360:0000000000000000000000000000000000000000000000000054000000000000
#0443b0:00000000000000000013000000000000
#044370:00000000000000000000002300000000
#044321:00000000000000000000001300230000
#044370:00000000000000000000000000130000
#0443b0:00000000000000000000000000000023
#045320:1323000000000000
#045360:00530000000000000000000000000000
#045380:00000013000000230000000000000000
#0453b0:00000000003300000000000000000000
#045351:00000013000000230000000000000000
#045321:00000000003300000000000000000000
#046321:13230000
#046370:0013000000000000
#0463b0:00230000
#047360:13
#047320:0023000000000000
#047360:00000000000000120000002200000000
#047320:00000000000000000033000000000000
#047381:00000000000000120000002200000000
#0473b1:00000000000000000033000000000000
#048361:12000022000000000000000000000000
#048321:0000005200000000000000000000000000000000000000000000000000000000
#0483c1:0000000012220000
#048320:0012
#048360:0000000000220000
#048380:0000000000000012
#049380:22
#049361:12
#049321:00000022000000000000000000000000
#049321:0000000012220000
#049380:0012
#0493c0:0000000000220000
#050380:12000022000000000000000000000000
#0503c0:0000005200000000000000000000000000000000000000000000000000000000
#050320:0000000012220000
#0503c1:0012
#050381:0000000000220000
#050361:0000000000000012
#051361:22
#051380:12
#0513c0:00000022000000000000000000000000
#0513c0:0000000012220000
#051361:0012
#051321:0000000000220000
