This file was generated by Ched 2.7.0.0.
#TITLE ""
#ARTIST ""
#DESIGNER ""
#DIFFICULTY 0
#PLAYLEVEL
#SONGID ""
#WAVE ""
#WAVEOFFSET 0
#JACKET ""
#REQUEST "ticks_per_beat 480"
#00002: 4
#BPM01: 95
#00008: 01
#TIL00: ""
#HISPEED 00
#MEASUREHS 00
#0041a:14
#00414:00140000
#00410:41
#00512:14
#00518:00140000
#00514:0014
#0051a:00000014
#0081a:14140000
#00914:14140000
#01018:14140000
#01012:00001414
#02012:00140000
#02018:00001414
#0201a:24
#02214:00140000
#0221a:14
#02218:0014
#02212:00000014
#02318:14
#02314:00140000
#00612:14
#00618:00140000
#0071a:14
#00714:00140000
#00718:0014
#00712:00000014
#01212:14140000
#01210:41
#01318:14140000
#01414:14140000
#0141a:00001414
#0211a:00140000
#02112:14
#02114:00001414
#02512:00140000
#0251a:14
#02518:00001414
#02414:00001414
#0241a:00140000
#02412:24
#02410:41
#0261a:00000014
#02712:00000014
#03112:14
#03118:00140000
#03114:0014
#0311a:00000014
#03314:14
#0331a:00140000
#03312:0014
#03318:00000014
#0351a:14
#03514:00140000
#03518:0014
#03512:00000014
#03618:1616
#03612:00160016
#04418:00000014
#04514:00000014
#01118:14
#03718:16161616
#03712:0016001600160016
#04312:00140000
#0431a:14
#0421a:00140000
#04212:26
#04210:41
#03812:00140000
#03818:26
#0381f:21
#03912:14
#0391a:00140000
#04018:0014
#04014:00000014
#0401a:14
#04012:00140000
#0411a:14
#04112:00140000
#04118:0014
#03218:0014
#03212:14
#0321f:11
#04714:0000341434000000
#04712:14
#04618:0000341434000000
#0461a:14
#0481a:14
#04814:00140000
#04912:14
#04918:00140000
#04914:0014
#0491a:00000014
#05012:14
#05018:00140000
#0511a:14
#05114:00140000
#01514:14
#03018:15151500
#03019:0015000000150000
#03017:0000001500000000
#03010:41
#02918:14
#02912:00140000
#0291a:0014
#02914:00000014
#02814:0014
#0281a:14
#03413:15151500
#03412:0015000000150000
#03414:0000001500000000
#01810:41
#00652:14
#0205a:14
#02452:14
#01158:54
#0115a:0014
#04252:16
#03858:16
#04158:0054
#03252:64
#03258:0064
#0465a:54
#04658:0000002400000000
#04752:54
#04754:0000002400000000
#01554:64
#01552:0014
#03058:55655500
#03059:0025000000250000
#03057:0000002500000000
#02854:0054
#0285a:54
#03453:65556500
#03452:0025000000250000
#03454:0000002500000000
#0045a:14
#0003a0:14003434003400000000000024000000
#001340:14003434003400000000000024000000
#002380:14003434003400000000000024000000
#003320:14003434003400000000000024000000
#0043a0:00001424
#006320:00001424
#0083a0:00001424
#009340:00001424
#011380:14
#0113a0:00342400
#012320:00001424
#013380:00001424
#015340:14
#015320:00342400
#016380:1434
#0163a0:00340024
#017340:1434
#017320:00340024
#018380:14
#0183a0:00240000
#018340:0014
#018320:00000024
#0193a0:1400000034343434
#019380:00340000
#0203a0:24
#0233a0:00001424
#026320:1424
#026340:00340000
#0273a0:1424
#027380:00340000
#0283a0:14
#028380:00240000
#028340:0014
#028320:00000024
#030380:15353525
#030390:0055000000550000
#030370:0000005500000000
#032320:14
#032340:00240000
#032380:0014
#0323a0:00000024
#034330:15353525
#034320:0055000000550000
#034340:0000005500000000
#038380:00001424
#039340:00001424
#041380:0014
#0413a0:00000024
#042340:00001424
#043380:00001424
#044340:1424
#044320:00340000
#045380:1424
#0453a0:00340000
#0463a0:14000024
#046380:0000345434000000
#047320:14000024
#047340:0000345434000000
#0483a0:00001424
#050320:00001424
#051380:0000000014003424
