This file was generated by Ched 2.7.0.0.
#TITLE ""
#ARTIST ""
#DESIGNER ""
#DIFFICULTY 0
#PLAYLEVEL
#SONGID ""
#WAVE ""
#WAVEOFFSET 0
#JACKET ""
#REQUEST "ticks_per_beat 480"
#00002: 4
#BPM01: 252
#00008: 01
#TIL00: ""
#HISPEED 00
#MEASUREHS 00
#0091a:14
#01014:14
#01312:14
#01418:14
#01718:14
#01814:14
#01918:14
#02014:14
#0211a:14
#02212:14
#02512:14
#02618:14
#0291a:14
#03014:14
#03314:14
#03418:14
#03514:14
#03618:14
#03712:14
#0381a:14
#0411a:14
#04110:41
#04214:14
#0431a:14
#04414:14
#04518:14
#04612:14
#04912:14
#05018:14
#05112:14
#05218:14
#05314:14
#0541a:14
#05912:0016
#05918:26
#05910:41
#06018:16
#06112:16
#06118:0016
#06212:16
#06218:0016
#06718:0016
#06712:26
#06812:16
#06918:16
#06912:0016
#07018:16
#07012:0016
#07612:16
#0991a:14
#10014:14
#11318:2616
#1131f:21
#11418:16
#11410:00410000
#11512:16
#11518:0016
#11612:16
#11618:0016
#12112:2616
#12212:16
#05713:14
#05719:14
#07518:16
#0871a:14
#0881a:14
#08912:14
#09012:14
#09118:14
#09214:14
#10712:14
#10818:14
#10914:14
#1101a:14
#12912:0016
#12918:16
#13018:16
#13012:0016
#13412:16
#13418:0016
#13312:16
#13318:0016
#13718:16
#13712:0016
#13818:16
#13812:0016
#10118:14
#10212:14
#1031a:14
#10414:14
#07812:0016
#0971f:11
#09712:24
#13912:0026
#13918:26
#14118:26
#1051a:24
#14018:26
#14012:0026
#12318:26
#12312:0026
#12418:26
#12412:0026
#00810:0000000000000041
#02410:0000000000000041
#07910:41
#001390:14
#002390:34
#003390:34
#004390:24
#005330:14
#006330:34
#007330:34
#008330:24
#0113a0:14
#0123a0:24
#015320:14
#016320:24
#023380:14
#024380:24
#027320:14
#028320:24
#0313a0:14
#0323a0:24
#039340:14
#040340:24
#047380:14
#048380:24
#055340:14
#056340:24
#063320:16
#064320:26
#065380:16
#066380:26
#071380:16
#072380:26
#073320:16
#074320:26
#077380:16
#078380:26
#079380:14
#080380:24
#081320:14
#082320:24
#0833a0:14
#0843a0:24
#085340:14
#086340:24
#093380:1434
#094380:34000024
#097320:1434
#098320:24
#1053a0:1434
#1063a0:24
#111320:14
#112320:24
#117320:16
#118320:26
#119380:16
#120380:26
#125380:16
#126380:26
#127320:16
#128320:26
#131380:16
#132380:26
#135320:16
#136320:26
#141380:1636
#142380:3626
