This file was generated by Ched 2.7.0.0.
#TITLE ""
#ARTIST ""
#DESIGNER ""
#DIFFICULTY 0
#PLAYLEVEL
#SONGID ""
#WAVE ""
#WAVEOFFSET 0
#JACKET ""
#REQUEST "ticks_per_beat 480"
#00002: 4
#BPM01: 252
#00008: 01
#TIL00: ""
#HISPEED 00
#MEASUREHS 00
#00018:0014
#00014:0000000000140000
#00917:00131300
#00912:0013001300000000
#0091b:0000000000000013
#00916:00000013
#01017:00130000
#01014:00000013
#01016:13
#01012:0000001300000000
#01019:0000000000130000
#01118:00131300
#0111b:13000013
#01115:0013000000130000
#01112:0000001300000013
#01315:00130000
#01313:00000013
#01318:0000000000000013
#0131a:0000001300000000
#01314:0013
#01319:0000000000130000
#01418:0000130000000013
#01415:0000001300001300
#0141b:0000000000130000
#01412:13
#01515:00131300
#01512:13000013
#01518:0013000000130013
#0151b:0000001300000000
#01612:00000013
#01618:00130000
#01615:1300001300000000
#0171b:13
#01719:00130000
#01717:0013
#01718:00000013
#01716:13
#01714:00130000
#01712:0013
#01715:0000000000000013
#01817:13000013
#01819:00130000
#0181b:0013
#01812:13000013
#01814:00130000
#01816:0013
#0191b:0013000000001300
#01916:00130000
#01917:0013
#01912:0013
#02012:13
#02014:00130000
#02017:0013000000000000
#02019:0000001300000000
#02016:0000000013000013
#0201b:0000000000000013
#04112:1300000000000013
#04117:00130013
#0411b:1313
#04110:41
#04217:1313
#0421b:00130013
#04216:00000013
#04312:13000013
#04317:00130000
#0431b:1313
#04318:0000000000000013
#04412:13
#0441b:00130013
#04417:0013
#04415:0000000000000013
#0451b:13
#04518:00130000
#04515:0013
#04512:00000013
#04517:0000000000000013
#04612:13
#04615:00130000
#04618:0013
#0461b:00000013
#04712:1313
#04716:00130013
#0471b:0000130000000013
#04717:1313
#04816:1313
#04817:00130000
#04812:00230000
#0481b:0023
#0551b:13
#05518:00130013
#05515:0000000013000013
#05918:00131300
#05915:23000013
#05912:0013
#0591b:23
#05910:41
#0601b:13
#06018:00130000
#06012:00130013
#06015:13
#06113:13
#06114:00130000
#06115:0013
#06116:00000013
#06217:00130013
#0621b:0013
#0631b:1313
#06317:0000130000000013
#06316:1300000000130000
#06312:00130000
#0641b:0000130000000013
#06412:0000000000130000
#06416:00130000
#06417:0013
#06512:0000130000000013
#06518:0000001300000000
#06515:0013
#0651b:0000000000130000
#06517:0000000000000013
#0671b:1313
#06718:00130000
#06715:0013000000000000
#06712:0000001300002300
#07012:00130000
#07015:0013
#07018:00000013
#0711b:1300000000000013
#07117:00130000
#07118:0013
#07115:0000000000130000
#07116:1300000000000013
#07112:00130000
#0721b:0013
#07218:00000013
#07212:0000000000000013
#07215:0000000000130000
#0731b:00130000
#07317:0000000013130000
#07312:0013
#07315:0000000000000013
#07318:0000000000000013
#0741b:00130000000000000000000013000000
#07416:00000013
#07412:00130000000000000000000000000000
#08017:0000001300130000
#08012:00131300
#0871b:13
#08717:0013
#08712:1300131300000000
#08716:0000000000001313
#0881b:1300000000130000
#08812:00130000
#08818:0000001300000000
#08815:0013
#09118:00130000
#09117:00000013
#0911b:2323
#09112:2323
#09216:00130000
#09215:00000013
#0921b:2323
#09212:2323
#09315:00132300
#09318:23000013
#0931b:0023
#09312:23
#09712:23130000
#09715:00000013
#09718:0013
#0971f:11
#0971b:23
#09618:00000013
#09818:00130000
#0981b:13000013
#09815:0013
#10512:23130000
#10518:00131313
#10515:00000013
#1051b:23
#10615:13130013
#1061b:00131313
#10715:13130000
#10718:00131313
#10712:00000013
#10812:13130000
#10818:00131313
#10815:00000013
#10915:13130013
#1091b:00131313
#11015:13130000
#11018:00131313
#11012:00000013
#12515:00130000
#12518:0013
#1251b:00000013
#12812:13
#1281b:13130000
#12818:0013
#12815:00000013
#12912:13
#12915:0000130000130000
#12918:0013
#12917:0000000000000013
#13017:0000000013130000
#1301b:0000000000000013
#13016:0000130000000013
#13012:0013
#1311b:0000000013130000
#13117:0000000000000013
#13112:0000000000000013
#13116:0013
#14012:00130000000000000000000013000000
#1401b:00130000000000000000000000000000
#14115:13
#14118:00130000
#1411b:0013
#14112:0000000000000013
#14116:0000000000130000
#14117:0000000000000013
#00118:00130013
#00112:1313
#0011b:2323
#00212:13
#00214:00141400
#00218:0000001400140000
#0021b:23
#00315:00130013
#0031b:1313
#00312:2323
#0041b:13
#00414:00141400
#00418:0000001400000000
#00412:23
#00515:00130013
#00512:1313
#0051b:2323
#00612:13
#00614:00141400
#0061a:0000001400140000
#0061b:23
#00718:00130013
#0071b:1313
#00712:2323
#0081b:1300000000000013
#00812:23141400
#00818:0000001400000000
#00816:0000000000000013
#00810:0000000000000041
#01215:00130000
#01218:1300001300000000
#01212:0000000000000013
#01217:0000000000000013
#05712:2300001300000000
#0571b:2300000000130000
#05718:0000002300000023
#05715:0000000000230000
#07512:1300000000000013
#07516:00130000
#07515:0013
#07518:0000000000130000
#07517:1300000000000013
#0751b:00130000
#07612:0013
#07615:00000013
#0761b:0000000000000013
#07618:0000000000130000
#07712:00130000
#07716:0000000013130000
#0771b:0013
#07718:0000000000000013
#07715:0000000000000013
#07912:0000130000001313
#07910:41
#08216:0000001300000000
#0821b:00131300
#0811b:0000130000001313
#08417:0000001300000000
#08414:0013
#08419:0000000000130000
#08412:00130000
#08312:00130000
#08316:0000000000001313
#08616:0000001300000000
#08619:0013
#0861b:00130000
#0851b:00130000
#08517:0000000000001313
#08912:13
#08916:0013
#0891b:1300131300000000
#08917:0000000000001313
#09012:13
#0901b:00130000
#09015:0000001300000000
#09018:0013
#09912:13130000
#09915:00000013
#09918:0013
#0991b:00130000
#10018:00130000
#1001b:13000013
#10015:0013
#1011b:00130000
#10118:00000013
#10115:0013
#10112:13130000
#10215:00130000
#10212:13000013
#10218:0013
#1031b:13130000
#10318:00000013
#10315:0013
#10312:00130000
#10415:00130000
#10412:13000013
#10418:0013
#11315:00131300
#11318:23000013
#1131b:0013
#11312:23
#1131f:21
#11412:13
#11415:00130000
#1141b:00130013
#11418:13
#11410:00410000
#1151a:13
#11519:00130000
#11518:0013
#11517:00000013
#11616:00130013
#11612:0013
#11712:1313
#11716:0000130000000013
#11717:1300000000130000
#1171b:00130000
#11812:0000130000000013
#1181b:0000000000130000
#11817:00130000
#11816:0013
#1191b:0000130000000013
#11915:0000001300000000
#11918:0013
#11912:0000000000130000
#11916:0000000000000013
#12112:1313
#12115:00130000
#12118:0013000000000000
#1211b:0000001300002300
#13216:00130000000000000000000000000000
#1321b:00130000000000000000000000000000
#13218:00000013
#13212:00000013
#1331b:13
#13318:0000130000130000
#13315:0013
#13316:0000000000000013
#13416:0000000013130000
#13412:0000000000000013
#13417:0000130000000013
#1341b:0013
#13512:0000000013130000
#13516:0000000000000013
#1351b:0000000000000013
#13517:0013
#13617:00130000000000000000000000000000
#13612:00130000000000000000000000000000
#1361b:0000000000000013
#13616:0000000000000013
#1371b:0000000013130000
#13716:0013
#13715:0000000000000013
#13718:0000000000000013
#13812:00130000000000000000000000001300
#13817:0000000000000013
#1381b:00130000000000000000000000000000
#13912:0000000013130000
#13917:0013
#13915:0000000000000013
#13918:0000000000000013
#02217:0000001300000000
#0221b:13000013
#02216:0000000000130000
#02212:00130000
#02112:0013001300000013
#02118:00000013
#02115:0000000000130000
#0211b:0013
#02117:00130000
#02415:13
#02412:0000000000000013
#02417:0000000000000013
#02418:00240000
#02414:0000002400000000
#02410:0000000000000041
#02318:0013000000130013
#02312:13000013
#02315:00131300
#0231b:0000001300000000
#0781b:00130000000000000000230000000000
#07812:00130000000000000000230000000000
#12316:13
#12314:00130000
#12319:00000013
#12414:00130000
#12419:00000013
#12618:00130000
#12615:0013
#12612:00000013
#1261b:13
#12715:00130000
#12718:0013
#1271b:00000013
#12712:13
#02516:00131300
#0251b:0013001300000000
#02512:0000000000000013
#02517:00000013
#02616:00130000
#02619:00000013
#02617:13
#0261b:0000001300000000
#02614:0000000000130000
#02715:00131300
#02712:13000013
#02718:0013000000130000
#0271b:0000001300000013
#02918:00130000
#0291a:00000013
#02915:0000000000000013
#02913:0000001300000000
#02919:0013
#02914:0000000000130000
#03015:0000130000000013
#03018:0000001300001300
#03012:0000000000130000
#0301b:13
#03118:00131300
#0311b:13000013
#03115:0013000000130013
#03112:0000001300000000
#0321b:00000013
#03215:00130000
#03218:1300001300000000
#03312:13
#03314:00130000
#03316:0013
#03315:00000013
#03317:13
#03319:00130000
#0331b:0013
#03318:0000000000000013
#03416:13000013
#03414:00130000
#03412:0013
#0341b:13000013
#03419:00130000
#03417:0013
#03512:0013000000001300
#03517:00130000
#03516:0013
#0351b:0013
#0361b:13
#03619:00130000
#03616:0013000000000000
#03614:0000001300000000
#03617:0000000013000013
#03612:0000000000000013
#02818:00130000
#02815:1300001300000000
#0281b:0000000000000013
#02816:0000000000000013
#03816:0000001300000000
#03812:13000013
#03817:0000000000130000
#0381b:00130000
#0371b:0013001300000013
#03715:00000013
#03718:0000000000130000
#03712:0013
#03716:00130000
#04018:1300002400000000
#04014:00240000
#03915:0013000000130013
#0391b:13000013
#03918:00131300
#03912:0000001300000000
#0491b:1300000000000013
#04916:00130013
#04912:1313
#05016:1313
#05012:00130013
#05017:00000013
#0511b:13000013
#05116:00130000
#05112:1313
#05115:0000000000000013
#0521b:13
#05212:00130013
#05216:0013
#05218:0000000000000013
#05312:13
#05315:00130000
#05318:0013
#0531b:00000013
#05316:0000000000000013
#0541b:13
#05418:00130000
#05415:0013
#05412:00000013
#05815:23
#05818:00230000
#05812:0023
#0581b:0023
#09418:23
#09419:00230000
#0941a:0023
#0941b:00000023
#09412:23
#09413:00230000
#09414:0023
#09415:00000023
#14218:0024
#14214:0000000000240000
#05612:23232300
#0561b:23232300
#06816:23
#06812:00230000
#0681b:00000023
#06917:2323
#0691b:00230023
#06916:00000023
#11112:23
#1111b:23
#11214:0022
#1121a:0022
#12217:23000023
#1221b:00230000
#12212:00000023
#00054:0000000000140000
#0085b:0000000000000053
#00852:0014
#01056:53
#01257:0000000000000053
#01956:00530000
#01952:0053
#02056:0013
#0205b:0000000000000053
#0575b:53
#05752:63
#06356:0000000000530000
#06452:0000000000530000
#0645b:0000000000000053
#06552:0000000000000053
#06557:0000000000000053
#0665b:00130000
#06656:00130000
#0695b:00000013
#06956:00000013
#0715b:0000000000000053
#07156:0000000000000053
#07252:0000000000000053
#07552:0000000000000063
#07557:0000000000000063
#0765b:0000000000000063
#0875b:53
#08757:0053
#0885b:5300000000130000
#08952:63
#08956:0063
#09052:63
#09058:0013
#09752:00130000
#09755:00000013
#09858:00130000
#0985b:00000013
#10552:00130000
#10558:00000013
#10655:00130000
#1065b:00000013
#10755:00130000
#10758:00000013
#10852:00130000
#10858:00000013
#10955:00130000
#1095b:00000013
#11055:00130000
#11058:00000013
#09952:00130000
#09955:00000013
#10058:00130000
#1005b:00000013
#1015b:00130000
#10158:00000013
#10255:00130000
#10252:00000013
#1035b:00130000
#10358:00000013
#10455:00130000
#10452:00000013
#1185b:0000000000630000
#11852:0000000000000063
#11956:0000000000000063
#1195b:0000000000000063
#11757:0000000000630000
#12052:00130000
#12057:00130000
#12955:0000000000530000
#12957:0000000000000053
#13056:0000000000000053
#1305b:0000000000000053
#13152:0000000000000053
#13157:0000000000000053
#1325b:00230000000000000000000000000000
#13256:00230000000000000000000000000000
#13358:0000000000630000
#13356:0000000000000063
#13452:0000000000000063
#13457:0000000000000063
#13556:0000000000000063
#1355b:0000000000000063
#13657:00230000000000000000000000000000
#13652:00230000000000000000000000000000
#1365b:0000000000000053
#13656:0000000000000053
#13852:00230000000000000000000000006300
#13857:0000000000000063
#1385b:00230000000000000000000000000000
#14152:0000000000000053
#14157:0000000000000053
#0595b:13
#05955:13
#07355:0000000000000053
#07358:0000000000000063
#07452:00230000000000000000000000000000
#0745b:00230000000000000000000000000000
#07758:0000000000000063
#07755:0000000000000053
#0785b:00230000000000000000000000000000
#07852:00230000000000000000000000000000
#11352:13
#11358:13
#13755:0000000000000053
#13758:0000000000000063
#13955:0000000000000053
#13958:0000000000000063
#14052:00230000000000000000000000000000
#1405b:00230000000000000000000000000000
#14254:0000000000140000
#04257:13
#04452:13
#04652:13
#06058:00130000
#06052:00130000
#06156:00000013
#1145b:00130000
#11455:00130000
#11557:00000013
#1255b:00000013
#08057:0000000000130000
#08459:0000000000130000
#12652:00000013
#1275b:00000013
#00258:0000000000140000
#0065a:0000000000140000
#00454:0014
#0825b:0013
#08659:0013
#03557:00630000
#0355b:0063
#03657:0013
#03652:0000000000000063
#02452:0000000000000063
#02657:63
#02856:0000000000000063
#05056:13
#0525b:13
#0545b:13
#0083b0:0000000000000013
#009370:0023000000000000
#010360:13
#010320:00230000
#012370:0000000000000013
#0133b0:00230000
#019360:00130023
#019320:0033
#0203b0:0000000000000013
#021370:0023000000000000
#024320:0000000000000013
#025360:0023000000000000
#026370:13
#0263b0:00230000
#028360:0000000000000013
#029320:00230000
#035370:00130023
#0353b0:0033
#036320:0000000000000013
#037360:0023000000000000
#041320:00130000
#041360:0023
#042360:00130000
#042320:0023
#043320:00130000
#043360:0023
#044360:00130000
#044320:0023
#0493b0:00130000
#049370:0023
#050370:00130000
#0503b0:0023
#0513b0:00130000
#051370:0023
#052370:00130000
#0523b0:0023
#0573b0:13
#057380:00230000
#057321:13
#057351:00230000
#058321:00001323
#0583b0:00001323
#060370:00000013
#061380:33
#061390:00330000
#0613a0:0033
#0613b0:00000023
#062320:00130023
#062360:0033
#063360:0000000000130000
#063320:0000000000000023
#064320:0000000000130000
#064360:0000000000000023
#0643b1:0000000000000013
#065381:00230000
#065371:0000000000000013
#0663b1:00230000
#065320:0000000000000013
#066360:00230000
#067370:00000013
#0683b0:33
#068370:00230000
#068360:00000013
#069320:3333
#069360:00330023
#0713b0:0000000000000013
#072370:00230000
#071361:0000000000000013
#072321:00230000
#072321:0000000000000013
#073361:00230000
#073351:0000000000000013
#074321:00530000000000000000000000000000
#074351:00230000
#073380:0000000000000013
#0743b0:00530000000000000000000000000000
#074380:00230000
#075320:0000000000000013
#076360:00230000
#075371:0000000000000013
#0763b1:00230000
#0763b1:0000000000000013
#077371:00230000
#077381:0000000000000013
#0783b1:00530000000000000000000000000000
#078381:00230000
#077350:0000000000000013
#078320:00530000000000000000000000000000
#078350:00230000
#0793b0:13
#079370:00230000
#0793b0:0013
#079370:00000023
#0803b0:13
#080370:00230000
#081320:13
#081360:00230000
#081320:0013
#081360:00000023
#082320:13
#082360:00230000
#0833b0:13
#083370:00230000
#083370:0013
#0833b0:00000023
#0843b0:13
#084370:00230000
#085320:13
#085360:00230000
#085360:0013
#085320:00000023
#086320:13
#086360:00230000
#0873b0:13
#087370:00230000
#087370:0013
#0873b0:00000023
#0883b0:13
#088370:00230000
#089320:13
#089360:00230000
#089360:0013
#089320:00000023
#090320:13
#090360:00230000
#114360:00000013
#115350:33
#115340:00330000
#115330:0033
#115320:00000023
#1163b0:00130023
#116370:0033
#117370:0000000000130000
#1173b0:0000000000000023
#1183b0:0000000000130000
#118370:0000000000000023
#118321:0000000000000013
#119351:00230000
#119361:0000000000000013
#120321:00230000
#1193b0:0000000000000013
#120370:00230000
#121360:00000013
#122320:33
#122360:00230000
#1233b0:13
#123370:0023
#123321:0013
#124361:23
#1243b0:13
#124370:0023
#124321:0013
#125361:23
#1253b0:13
#125380:00230000
#125350:0013
#125320:00000023
#126320:13
#126350:00230000
#126380:0013
#1263b0:00000023
#1273b0:13
#127380:00230000
#127350:0013
#127320:00000023
#129380:13230000
#129350:0000000000130000
#129320:0000000000000023
#129371:0000000000000013
#1303b1:00230000
#1303b1:0000000000000013
#131371:00230000
#130360:0000000000000013
#131320:00230000
#131320:0000000000000013
#132360:00530000000000000000000000000000
#132320:00230000
#131371:0000000000000013
#1323b1:00530000000000000000000000000000
#132371:00230000
#133351:13230000
#133381:0000000000130000
#1333b1:0000000000000023
#133360:0000000000000013
#134320:00230000
#134320:0000000000000013
#135360:00230000
#134371:0000000000000013
#1353b1:00230000
#1353b1:0000000000000013
#136371:00530000000000000000000000000000
#1363b1:00230000
#135360:0000000000000013
#136320:00530000000000000000000000000000
#136360:00230000
#1363b0:0000000000000013
#137370:00230000
#136361:0000000000000013
#137321:00230000
#137351:0000000000000013
#138321:00530000000000000000000000000000
#138351:00230000
#137380:0000000000000013
#1383b0:00530000000000000000000000000000
#138380:00230000
#138320:0000000000000013
#139360:00230000
#138371:0000000000000013
#1393b1:00230000
#139351:0000000000000013
#140321:00530000000000000000000000000000
#140351:00230000
#139380:0000000000000013
#1403b0:00530000000000000000000000000000
#140380:00230000
#141320:0000000000000013
#142360:00230000
#141371:0000000000000013
#1423b1:00230000
