This file was generated by Ched 2.7.0.0.
#TITLE ""
#ARTIST ""
#DESIGNER ""
#DIFFICULTY 0
#PLAYLEVEL
#SONGID ""
#WAVE ""
#WAVEOFFSET 0
#JACKET ""
#REQUEST "ticks_per_beat 480"
#00002: 4
#BPM01: 252
#00008: 01
#TIL00: ""
#HISPEED 00
#MEASUREHS 00
#00019:0014
#00013:0000000000140000
#0101b:00000013
#01018:1300001300000000
#01012:00130000
#01015:0000000000130000
#01218:00130000
#01215:0000001300000000
#0121b:0000000000000013
#01412:13000013
#0141b:00130000
#01415:0000001300000000
#01418:0000000000130000
#01712:14000014
#01716:00140000
#0171a:0014
#01915:0013000000000000
#01918:00130000
#01912:0013
#0201b:13131300
#02015:0013001300000000
#02012:0000000000000013
#04112:13000013
#04115:00130000
#04118:0013
#0411b:13000013
#04110:41
#0451b:00130000
#04515:0013
#04518:00000013
#04612:13
#0461b:00130000
#04618:0013
#04615:00000013
#04718:1313
#04715:00130013
#04712:1313
#0471b:00130000
#04818:1313
#04815:00130000
#0481b:00230000
#04812:0023
#05515:00130013
#05518:13
#0551b:0013
#05915:00130000
#0591b:0013
#05918:00000013
#0591a:24
#05910:41
#06018:00140000
#06015:13
#06012:00000014
#06212:00130000
#06218:0013
#06215:00000013
#0631b:1300000000000013
#06318:0013
#06312:00130000
#06315:0000000000130000
#06415:0000000013000013
#06418:0000000000130000
#06515:0013
#06518:0000000000000013
#0651b:0013
#06712:13
#06718:00130000
#06715:0013
#0671a:00000024
#0701b:00130000
#07015:0013
#07018:00000013
#07112:13
#0711b:0000130000000013
#07118:0013
#07115:0000130000130000
#07315:0000000000130000
#07318:0000000013000013
#08018:0000001300130000
#08012:00131300
#0801b:13
#0911a:00140000
#09116:00000014
#09112:2424
#0921a:00140000
#09216:00000014
#09212:2424
#09315:00130000
#0931b:00000013
#09312:23
#09318:0023
#09615:00000013
#12518:00130000
#12515:0013
#1251b:00000013
#12912:13
#12918:0000130000130000
#12915:0000000013000013
#13015:0000000000130000
#1301b:0000000000000013
#13018:0013
#13118:0000000000130000
#13115:0013
#13112:0000000000000013
#14012:00000013
#14118:1313
#14115:0000130000130000
#14112:0000000000000013
#1411b:0000000000000013
#00115:00130013
#0011b:23
#00118:0023
#07415:00000013
#1281b:00130000
#12815:0013
#12818:00000013
#12812:13
#02212:00130000
#0221b:00000013
#02215:0000000000130000
#02218:1300001300000000
#02415:1300002300000000
#0241b:0000000000000013
#02418:00230000
#02410:0000000000000041
#0231b:00000013
#02318:0013
#02315:00130000
#02312:13
#02115:0033000000001300
#0211b:0013
#00212:00140000
#00218:0000001400000000
#00214:0014
#0021a:0000000000140000
#0021b:23
#00318:00130013
#00312:23
#00315:0023
#0041a:00140000
#00414:0000001400000000
#00418:0014
#00412:23
#00515:00130013
#0051b:23
#00518:0023
#00612:00140000
#00618:0000001400000000
#00614:0014
#0061a:0000000000140000
#0061b:23
#00718:00130013
#00712:23
#00715:0023
#0081a:00140000
#00814:0000001400000000
#00818:0014
#00812:2300000000000013
#00810:0000000000000041
#0091b:0013
#00915:0033000000001300
#01315:0013
#01318:00000013
#01615:00130000
#01618:0000001300000000
#0181a:14000014
#01816:00140000
#01812:0014
#02612:00000013
#02615:1300001300000000
#0261b:00130000
#02618:0000000000130000
#02815:00130000
#02818:0000001300000000
#02812:0000000000000013
#0301b:13000013
#03012:00130000
#03018:0000001300000000
#03015:0000000000130000
#0331a:14000014
#03316:00140000
#03312:0014
#03518:0013000000000000
#03515:00130000
#0351b:0013
#03612:13131300
#03618:0013001300000000
#0361b:0000000000000013
#0381b:00130000
#03812:00000013
#03818:0000000000130000
#03815:1300001300000000
#04018:1300002300000000
#04015:00230000
#03912:00000013
#03915:0013
#03918:00130000
#0391b:13
#03718:0033000000001300
#03712:0013
#02512:0013
#02518:0033000000001300
#02918:0013
#02915:00000013
#03218:00130000
#03215:0000001300000000
#03412:14000014
#03416:00140000
#0341a:0014
#0421b:00130013
#04218:0013
#04215:00130013
#04212:0013
#04312:00130000
#04315:0013
#04318:00000013
#0441b:13
#04418:00130000
#04415:0013
#04412:00000013
#0491b:13000013
#04918:00130000
#04915:0013
#04912:13000013
#05312:00130000
#05318:0013
#05315:00000013
#0541b:13
#05415:00130000
#05418:0013
#05412:00000013
#05012:00130013
#05015:0013
#05018:00130013
#0501b:0013
#0511b:00130000
#05118:0013
#05115:00000013
#05212:13
#05215:00130000
#05218:0013
#0521b:00000013
#06114:14
#06116:00140000
#06118:0014
#0611a:00000014
#07215:0000000013000013
#07218:00000013
#08215:0000001300000000
#0821b:00131300
#08212:13
#08415:0000001300130000
#0841b:00131300
#08412:13
#08618:0000001300000000
#08612:00131300
#0861b:13
#08818:0000001300130000
#08812:00131300
#0881b:13
#08815:13
#09015:0000001300000000
#0901b:00131300
#09012:13
#09018:13
#09718:00130013
#09715:0013
#0971f:11
#0971b:23
#09815:13
#09812:00130000
#09818:00000013
#09912:13
#09915:00130000
#09918:0013
#0991b:00000013
#10118:0000130000130000
#10115:0000000013000013
#10218:0000000013000013
#10215:0000000000130000
#10315:0000000013000013
#10318:0000000000130000
#10418:00000013
#10515:00130013
#10518:0013
#10512:23
#10618:13
#1061b:00130000
#10615:00000013
#1071b:13
#10718:00130000
#10715:0013
#10712:00000013
#10915:0000130000130000
#10918:0000000013000013
#11015:0000000013000013
#11018:0000000000130000
#11118:0000000013000013
#11115:0000000000130000
#11318:00130000
#11312:2413
#11315:00000013
#1131f:21
#11414:00140000
#11418:13
#1141a:00000014
#11410:00410000
#1161b:00130000
#11615:0013
#11618:00000013
#11712:1300000000000013
#11715:0013
#1171b:00130000
#11718:0000000000130000
#11818:0000000013000013
#11815:0000000000130000
#11918:0013
#11915:0000000000000013
#11912:0013
#1211b:13
#12115:00130000
#12118:0013
#12112:00000024
#11518:14
#11516:00140000
#11514:0014
#11512:00000014
#11218:00000014
#12312:14
#12316:0014
#12412:14
#12416:0014
#12612:13
#12618:00130000
#12615:0013
#1261b:00000013
#12712:13
#12718:00130000
#12715:0013
#1271b:00000013
#1331b:13
#13315:0000130000130000
#13318:0000000013000013
#13418:0000000000130000
#13412:0000000000000013
#13415:0013
#13515:0000000000130000
#13518:0013
#1351b:0000000000000013
#13215:00000013
#13618:0000000000000013
#13612:0000000000000013
#13718:0000000013000013
#13715:0000000000130000
#13712:0000000000000013
#13815:0000000000000013
#1381b:0000000000000013
#13915:0000000013000013
#13918:0000000000130000
#1391b:0000000000000013
#0751b:13
#07512:0000130000000013
#07515:0013
#07518:0000130000130000
#07718:0000000000130000
#07715:0000000013000013
#07618:0000000013000013
#07615:00000013
#0571a:24
#05714:0000000000240000
#05718:0000000000000024
#05814:24
#05818:00240000
#05812:0024
#07812:0000000000240000
#0781a:0000000000240000
#14219:0024
#14213:0000000000240000
#0561a:24
#05616:00240000
#05612:0024
#06816:24
#0681a:00240000
#06812:00000024
#06916:2424
#0691a:00240000
#06912:00000024
#09412:23
#09415:00230000
#09418:0023
#0941b:00000023
#12216:24
#12212:00240000
#1221a:00000024
#01112:0033333300333333
#0151b:0033333300333333
#0271b:0033333300333333
#03112:0033333300333333
#07910:41
#00053:0000000000140000
#0125b:0000000000000053
#0205b:0013
#02052:0000000000000063
#0575a:54
#06455:0000000000000053
#06558:0000000000000053
#0665b:00130000
#06952:00000014
#0715b:0000000000000053
#12955:0000000000000053
#1305b:0000000000000053
#14152:0000000000000053
#1415b:0000000000000063
#0595a:14
#07358:0000000000000063
#14253:0000000000140000
#06058:00140000
#1255b:00000013
#08058:0000000000130000
#00852:0000000000000053
#01952:0053
#03652:0013
#0365b:0000000000000053
#02852:0000000000000063
#0245b:0000000000000063
#0355b:0063
#0615a:00000014
#0635b:0000000000000053
#07255:0000000000000053
#0825b:0013
#08455:0000000000130000
#08652:0013
#08858:0000000000130000
#0905b:0013
#10155:0000000000000053
#10258:0000000000000063
#10355:0000000000000053
#10452:00130000
#10958:0000000000000063
#11055:0000000000000053
#11158:0000000000000063
#1125b:00130000
#11454:00140000
#11752:0000000000000063
#11858:0000000000000063
#11955:0000000000000063
#11552:00000014
#11352:14
#12052:00130000
#12352:54
#12356:0054
#12452:54
#12456:0054
#1265b:00000013
#1275b:00000013
#13152:0000000000000053
#13358:0000000000000063
#13452:0000000000000063
#1355b:0000000000000063
#13658:0000000000000053
#13652:0000000000000053
#13758:0000000000000053
#13752:0000000000000053
#13855:0000000000000063
#1385b:0000000000000063
#13955:0000000000000063
#1395b:0000000000000063
#07552:0000000000000063
#07755:0000000000000053
#07658:0000000000000063
#008320:0000000000000013
#009350:0033230000000000
#011320:1333333300333333
#011360:0033
#012320:23
#0123b0:0000000000000013
#013380:00230000
#0153b0:1333333300333333
#015370:0033
#0163b0:23
#019320:0013
#019350:00000023
#020320:0000000000000013
#021350:0033230000000000
#0243b0:0000000000000013
#025380:0033230000000000
#0273b0:1333333300333333
#027370:0033
#0283b0:23
#028320:0000000000000013
#029350:00230000
#031320:1333333300333333
#031360:0033
#032320:23
#0353b0:0013
#035380:00000023
#0363b0:0000000000000013
#037380:0033230000000000
#0573a0:14
#057380:0000002400000000
#058320:00001424
#0633b0:0000000000000013
#064380:00230000
#064350:0000000000000013
#065320:00230000
#065380:0000000000000013
#0663b0:00230000
#0713b0:0000000000000013
#072380:00230000
#072350:0000000000000013
#073320:00230000
#073380:0000000000000013
#0743b0:00230000
#075320:0000000000000013
#076350:00230000
#076380:0000000000000013
#0773b0:00230000
#077350:0000000000000013
#078320:00230000
#0793b0:13
#079380:00230000
#079320:0013
#079350:00000023
#081320:13
#081350:00230000
#0813b0:0013
#081380:00000023
#083320:13
#083350:00230000
#0833b0:0013
#083380:00000023
#0853b0:13
#085380:00230000
#085320:0013
#085350:00000023
#0873b0:13
#087380:00230000
#087351:13
#087321:00230000
#087321:0013
#087351:00000023
#087380:0013
#0873b0:00000023
#089320:13
#089350:00230000
#089381:13
#0893b1:00230000
#0893b1:0013
#089381:00000023
#089350:0013
#089320:00000023
#100320:00130033
#100350:0033
#101350:23
#101350:0000000000000013
#102320:00230000
#102380:0000000000000013
#1033b0:00230000
#103350:0000000000000013
#104320:00230000
#1083b0:00130033
#108380:0033
#109380:23
#109380:0000000000000013
#1103b0:00230000
#110350:0000000000000013
#111320:00230000
#111380:0000000000000013
#1123b0:00230000
#117320:0000000000000013
#118350:00230000
#118380:0000000000000013
#1193b0:00230000
#119350:0000000000000013
#120320:00230000
#123320:14
#123360:0034
#124320:34
#124360:0034
#125320:24
#129350:0000000000000013
#130320:00230000
#1303b0:0000000000000013
#131380:00230000
#131320:0000000000000013
#132350:00230000
#133380:0000000000000013
#1343b0:00230000
#134320:0000000000000013
#135350:00230000
#1353b0:0000000000000013
#136380:00230000
#136380:0000000000000013
#1373b0:00230000
#136321:0000000000000013
#137351:00230000
#137381:0000000000000013
#1383b1:00230000
#137320:0000000000000013
#138350:00230000
#138350:0000000000000013
#139320:00230000
#1383b1:0000000000000013
#139381:00230000
#139351:0000000000000013
#140321:00230000
#1393b0:0000000000000013
#140380:00230000
#141320:0000000000000013
#142350:00230000
#1413b1:0000000000000013
#142381:00230000
