This file was generated by Ched 2.7.0.0.
#TITLE ""
#ARTIST ""
#DESIGNER ""
#DIFFICULTY 0
#PLAYLEVEL
#SONGID ""
#WAVE ""
#WAVEOFFSET 0
#JACKET ""
#REQUEST "ticks_per_beat 480"
#00002: 4
#BPM01: 252
#00008: 01
#TIL00: ""
#HISPEED 00
#MEASUREHS 00
#00012:0000000000130000
#00018:0013
#0001b:0000000000130000
#00915:00130000
#0091b:00001313
#00912:0013000000000013
#00918:0000001300000000
#00916:0000000000140000
#01012:1300130000131300
#01016:1400001400000014
#0101b:0000001300000000
#01112:00000013
#01115:0000000000000013
#01116:0014001400140000
#01312:00140000
#01318:0000001400001400
#01314:0000000014000014
#01316:0000000000140000
#01317:00130000000000000000000000000000
#01412:13000014
#01416:0000141400000014
#0141a:0000000000140000
#0141b:13
#01518:00130013
#01512:1300000000130000
#01515:0013000013000000
#0171b:13
#01719:00130000
#01714:0000000000000013
#0201a:1414
#02012:00140013
#02016:0014001400001414
#0201b:0000000000000013
#04116:0014000000001400
#0411b:00131300
#0411a:14
#04112:00140000
#04110:41
#0421b:00130000
#04217:0013
#04218:0000000000000012
#04216:14140012
#04312:14130000
#0431a:00140014
#0431b:0013
#04316:0014001300130014
#04313:0013
#04412:1400001300130000
#04416:0000130000000014
#04415:0013
#0441b:00131300
#0441a:00000014
#04512:1413
#0451a:00140000
#04517:0013
#0451b:00000013
#04516:0014000000000013
#0461b:13
#04616:13140014
#04614:0014
#04612:00140000
#04618:0014
#0461a:00000014
#0471b:1313
#04718:0000001300000000
#04716:0000000000141400
#04712:0000130000000013
#04715:0013000000000000
#0481b:13
#0481a:0014
#04814:0014000000000000
#04818:0000001400000000
#04819:00000012
#04815:00000012
#04816:00240000
#04812:0024
#05512:13
#05516:00000012
#05518:0000000000000012
#05919:00130000
#05916:24000013
#05912:0013
#05914:00130000
#0591a:24
#05910:41
#06217:00130000
#06216:14
#06317:0000130000130000
#06316:1300000013000013
#06312:0000130000130000
#0631b:0000000000000013
#06417:00130000000000000000000000000000
#0641b:0000000000130000
#06412:00130000000000001300000000001300
#06416:0000000014140000
#0651b:00130000
#06518:0000001300000000
#06515:0013
#06512:0000000000130000
#06516:0000000000001414
#0651c:0000000000000012
#0671b:1313
#06715:00130000
#06718:0013000000000000
#06712:0000001300002300
#0711c:12
#07112:1200130000000013
#07117:0000130000000013
#0711b:0000000013130000
#07316:0000000014140012
#07318:0000000000000012
#0731b:00130000
#0741a:00000012
#07414:00000012
#07412:00130000000000000000000000000000
#0741b:00130000000000000000000000000000
#07416:0012
#07418:0012
#08015:0000001300000000
#08018:0013
#0801b:0000000000130013
#08012:13130000
#08016:00000014
#08712:1300001300001300
#08715:0000130000000013
#0871b:1300000000130000
#08717:0013000013000000
#08816:00141414
#08812:0000001300000000
#0881b:1300000000130013
#08817:0013000000000000
#09112:231c001c
#09118:23
#0911b:0023
#09115:0023
#09212:231c001c
#0921b:0023
#09218:23
#09215:0023
#09312:231c001c
#09317:23
#0931b:0023
#09316:0023
#09712:24180000
#09716:00001418
#0971f:11
#0971a:24
#09616:00000014
#09816:00181400
#09812:00000018
#0981a:14
#10512:24160000
#10518:00130016
#10515:00001613
#1051a:24
#10612:13190013
#10615:00001319
#10618:13
#1061b:00131300
#12513:00130000
#12514:0013
#12515:00000013
#12812:13130000
#1281b:13
#12817:00000013
#12816:0000001300000000
#12813:0000000000130000
#12917:0013
#1291b:0000130000000013
#12916:0000000000000013
#12912:1300000013130000
#1301b:0000000013130000
#13016:0000000013000014
#13012:0000000000000012
#1311b:0013
#13116:00120000000000001300130000000000
#1311a:00140000000000000000000000000000
#13112:0000000000000014
#13118:0000000000000012
#00118:0000130000000013
#00115:0000001300001300
#00112:1313
#0011b:2323
#00212:1300000000140000
#0021a:0000140014140000
#00216:0000001400000000
#00215:0013000000000000
#0021b:23
#0081a:0000000014000014
#00816:0000001400000013
#0081b:13
#00812:23141400
#00818:0013000000000000
#00810:0000000000000041
#0121b:0000131300000013
#01216:0000000000001313
#01218:13
#01812:13
#01814:00130000
#01817:00000013
#05712:2400001300000023
#0571b:0000000000130000
#0571a:24
#05716:0000002400240000
#05718:0000000000000023
#06012:13000013
#06016:00141400
#06017:00000013
#06019:0000000000000013
#07912:00130013
#07918:0000000000000014
#07916:1413
#07910:41
#09912:14180000
#0991a:14
#09916:00001418
#10112:14000018
#1011a:14
#10116:00181400
#10712:14000016
#1071a:14
#10718:00160013
#10715:00131600
#13217:0013
#13212:0000000000130000
#13216:00140000000000000000000000000000
#1321c:00120000000000000000000000000000
#13219:00000013
#13214:0000000000000013
#0221b:0000130000130000
#02212:0000001300001300
#02216:1400140000000014
#02418:13
#02412:0000000014000014
#02417:0000000000000013
#0241a:0014
#02416:0000242400000000
#02410:0000000000000041
#02312:0000000013000013
#02315:0013000000001300
#02318:0000130000130000
#0231b:1300001300000000
#02112:0000000000000013
#0211b:00000013
#02119:0013
#02117:00130000
#0161b:1300131300000000
#01617:00000013
#01612:00000013
#12312:1313
#12316:13130000
#1231b:00130013
#12317:00000013
#00315:0000130000000013
#00318:0000001300001300
#0031b:1313
#00312:2323
#0041b:13
#00412:23141400
#00416:0000001400000000
#00418:0013000000000000
#0041a:0014
#0051a:00130000
#00513:00000013
#00512:1313
#00516:0000001300000000
#00517:0000000000000013
#0051b:2323
#00612:1300000000140000
#0061a:0000140000140000
#00616:0000001414000000
#00615:0013000000000000
#0061b:23
#00713:00130000
#0071a:00000013
#0071b:1313
#00717:0000001300000000
#00716:0000000000000013
#00712:2323
#01919:0000001300000013
#01914:0013000000130000
#02518:00130000
#02512:00001313
#0251b:0013000000000013
#02515:0000001300000000
#02516:0000000000140000
#0261b:1300130000131300
#02616:1400001400000014
#02612:0000001300000000
#0271b:00000013
#02718:0000000000000013
#02716:0014001400140000
#0291a:00140000
#02914:0000001400001400
#02918:0000000014000014
#02916:00130000000000000000140000000000
#0301a:00000014
#03016:0000141400000014
#03012:1300000000140000
#0301b:13
#03115:00130013
#0311b:1300000000130000
#03118:0013000013000000
#03312:13
#03314:00130000
#03319:0000000000000013
#03612:1400000014000013
#0361a:00140000
#03616:0014001400001414
#0361b:00000013
#02812:0000131300000013
#02817:0000000000001313
#02815:13
#0341b:13
#03419:00130000
#03416:00000013
#03812:0000130000130000
#0381b:0000001300001300
#03816:1400140000000014
#04015:13
#0401a:0014
#04012:0014
#04016:0000242400000000
#0391b:0000000013000013
#03918:0013000000001300
#03915:0000130000130000
#03912:1300001300000000
#0371b:0000000000000013
#03712:00000013
#03714:0013
#03716:00130000
#03212:1300131300000000
#03216:00000013
#0321b:00000013
#03514:0000001300000013
#03519:0013000000130000
#04916:0014000000001400
#04912:14131300
#0491a:00140000
#05012:00130000
#05016:1400140013000012
#05018:00000012
#0511a:1413
#05112:00141314
#05116:0014000000000014
#0511b:00130000
#05117:0000001300130000
#0521a:14
#05216:0000000000000014
#05217:00130000
#0521b:0000001300130000
#05218:0013
#05212:00131314
#0531a:14
#05312:00140013
#05316:0014000013000000
#05317:0000000000000013
#0531b:0013
#05412:13000014
#05416:00140014
#05418:0014
#05417:13
#0541a:00140000
#05414:0014
#05618:0000230000130000
#05615:00230013
#05612:2323
#0561b:2323
#06616:0000000000140014
#0661c:0012
#06612:00000012
#06816:24140000
#06812:00230000
#0681b:23000023
#07019:12
#07015:12
#07012:00120000
#07014:0000001400001400
#07018:0000000012000014
#0701a:0000000000140000
#07512:1200000013130000
#07516:0000130000000013
#0751b:0000130000000013
#0751c:12
#07612:0000000014000014
#07616:0000000000141400
#0761a:0000000000000014
#07712:00130000
#07716:0000000014140012
#07718:0000000000000012
#0781b:00130000000000000000000000000000
#07812:00130000000000000000240000000000
#0781a:0000000000240000
#08218:0000001300000000
#08215:0013
#0821b:13130000
#08216:00000014
#08212:0000000000000013
#0811b:00130013
#08114:0000000000000014
#08116:14
#08117:0013
#08414:0000001400000000
#08416:0014
#08418:0000000000140000
#08412:13140000
#08415:00000013
#0841b:0000000000000013
#08312:00131300
#08315:00000013
#08318:0000000000000014
#08316:14
#08618:0000001400001300
#08616:0014
#0861a:00140000
#0861b:13
#08612:0000000000000013
#0851b:00131300
#08518:00000013
#08514:0000000000000014
#08516:14
#09016:0013140014001400
#09012:1300000000000013
#0901b:0000001300000000
#10016:00181400
#10012:00000018
#1001a:14
#10212:14180000
#10216:00001418
#1031a:14
#10312:14000018
#10316:00181400
#10412:14180000
#10416:00001418
#10815:13190000
#10812:00131319
#1081b:13000013
#10818:0013
#10912:14000016
#1091a:14
#10918:00160013
#10915:00131600
#11015:13190000
#11012:00131319
#1101b:13000013
#11018:0013
#11616:14130000
#11716:0000130000130000
#11717:1300000013000013
#1171b:0000130000130000
#11712:0000000000000013
#11816:00130000000000001400140000000000
#11812:0000000000130000
#1181b:00130000000000001300000000001300
#11912:0000130000000012
#11915:0000001300000000
#11918:0013
#1191b:0000000000130000
#11916:0000000000001414
#12112:1313
#12118:00130000
#12115:0013000000000000
#1211b:0000001300002300
#12016:0000000000140014
#12012:0012
#1201c:00000012
#12216:24140024
#1221b:00230023
#12212:23
#12416:13130000
#1241b:00130013
#12412:0013
#12417:00000013
#1261a:00130000
#12619:0013
#12618:00000013
#1261b:13
#12713:00130000
#12714:0013
#12715:00000013
#12712:13
#13316:0013
#13312:0000130000000013
#13317:0000000000000013
#1331b:1300000013130000
#13412:0000000013130000
#13417:0013
#13416:0000000000000014
#1341c:0000000000000012
#13512:00140000000000001300000000000000
#13517:0000000013130000
#13518:00120000000000000000000000000000
#1351a:0000000000000014
#13516:0000000000000012
#13616:00140000000000000000000000000000
#13612:00120000000000000000000000000000
#13615:00000013
#13618:0000000000000013
#14118:26162600
#14112:26002616
#0891b:1300001300001300
#08918:0000130000000013
#08912:1300000000130000
#08916:0013000013000000
#06916:2314000023142400
#0691a:00000024
#0691b:00230000
#0721a:0000000014000014
#07216:0000000000141400
#07212:0000000000000014
#11314:00130000
#11317:00000013
#1131b:0013
#11319:00130000
#11312:24
#11316:24
#1131f:21
#1141b:13000013
#11416:00141413
#11414:0000000000000013
#11410:00410000
#11519:13
#1151a:00130000
#11518:0013
#1151b:00000013
#11515:13
#11516:0013000000130000
#11514:00131300
#11512:0000001300000000
#06114:13
#06113:00130000
#06115:0013
#06112:00000013
#06118:13
#06117:0013000000130000
#06119:00131300
#0611b:0000001300000000
#14212:2613000000000000
#1421b:0013000000000000
#14218:2623
#14215:0023
#05815:23230000
#05818:00230000
#05812:0024
#0581a:0024
#0581b:23
#09417:2323
#0941a:00240024
#09412:2424
#09416:00230023
#11112:24
#1111a:24
#11215:0022
#11219:0022
#13712:23
#13716:0024
#13816:24
#1381b:0023
#13912:26
#13916:0022
#14018:2226
#00052:0000000000130000
#0005b:0000000000130000
#0085a:0000000014000054
#00852:13
#01056:54
#0125b:0000000000000053
#0205a:0014
#0205b:0000000000000053
#0575a:54
#05752:64
#0645b:0000000000630000
#06452:00230000000000000000000000006300
#06457:00230000000000000000000000000000
#0655c:0000000000000062
#06556:0000000000000064
#06652:00140000
#06658:00120000
#0695a:00000014
#06956:00000014
#1295b:0000000000000053
#12952:53
#12956:0000000000000053
#07356:0000000000000052
#07358:0000000000000062
#07452:00230000000000000000000000000000
#0745b:00230000000000000000000000000000
#04452:1400002300230000
#04456:00630000
#04455:0063
#0465b:13
#12555:00000013
#0805b:0000000000130000
#0885b:5300000000130000
#08857:0023000000000000
#0015b:1313
#0025b:13
#00252:0000000000140000
#00352:1313
#00452:13
#0045a:0014
#0055b:1313
#0065b:13
#00652:0000000000140000
#00752:1313
#01357:00230000000000000000000000000000
#03652:0000000014000063
#02452:0000000000000064
#02656:64
#02852:0000000000000063
#02956:00230000000000000000000000000000
#04152:00540000
#04256:14540000
#04352:00530000
#04353:0053
#04356:0000002300230000
#0525a:14
#05257:00530000
#0525b:0000002300230000
#05258:0053
#05452:13
#0495a:00640000
#05056:14640000
#0515b:00630000
#05157:0000002300230000
#0515a:0063
#05956:34
#0595a:44
#06056:00340000
#0605b:00430000
#06057:00000053
#06059:0000000000000023
#06356:1300000000000053
#06357:00530000
#0635b:0000000000000053
#06856:00540000
#0675b:0053
#0755b:0000530000000053
#07556:0000000000000053
#0765a:0000000000000064
#07758:0000000000000062
#07756:0000000000000052
#0785b:00230000000000000000000000000000
#07852:00230000000000000000000000000000
#08458:0000000000140000
#09152:001c001c
#09252:001c001c
#09752:00380000
#09756:00000048
#09856:00380000
#09852:00000048
#09952:00380000
#09956:00000048
#10056:00380000
#10052:00000048
#10156:00480000
#10152:00000038
#10252:00480000
#10256:00000038
#10356:00480000
#10352:00000038
#10452:00480000
#10456:00000038
#10552:00360000
#10558:00000046
#10758:00460000
#10752:00000036
#10958:00460000
#10952:00000036
#11756:00630000
#11757:1300000000000063
#11752:0000000000000063
#11856:00230000000000000000000000000000
#11852:0000000000530000
#1185b:00230000000000000000000000005300
#11956:0000000000000054
#11952:0000000000000052
#12256:00640000
#12152:0063
#1205a:00140000
#12056:00120000
#12356:53
#12352:0053
#1235b:00230000
#12357:00000023
#12456:53
#1245b:00230000
#12452:0053
#12457:00000023
#12658:00000013
#12755:00000013
#13057:00130000
#13052:0000130000000052
#13056:0000000000000054
#1315a:00240000000000000000000000000000
#13156:00220000000000000000000000000000
#13152:0000000000000054
#13158:0000000000000052
#13256:00240000000000000000000000000000
#1325c:00220000000000000000000000000000
#13352:0000000000000063
#13357:0000000000000063
#1335b:63
#13456:0000130000000064
#1345c:0000000000000062
#1345b:00130000
#13552:00240000000000000000000000000000
#13558:00220000000000000000000000000000
#1355a:0000000000000064
#13556:0000000000000062
#13656:00240000000000000000000000000000
#13652:00220000000000000000000000000000
#1375a:00440000
#1375b:00000043
#13752:00330000
#13756:00000034
#13856:00340000
#13852:00430034
#1385b:00000043
#14152:00360000
#14158:00000046
#14252:5623460000360000
#14258:5600360023460000
#14255:0023
#1425b:0023000000000000
#13952:00460000
#13956:00000042
#1395b:00330000
#1395a:00000034
#14052:00340043
#14058:00420036
#0875b:6300000000230000
#08757:0023000053000000
#08952:5300000000230000
#08956:0023000063000000
#09052:63
#09056:0023000014000000
#07152:0000630000000063
#07157:0000000000000063
#07252:0000000000000054
#1155b:00000043
#11555:63
#11556:0023000000230000
#11554:00636300
#11552:0000002300003300
#11456:00440063
#11454:0000000000000023
#11452:00330000
#11352:34
#11356:44
#06152:00000033
#06158:53
#06157:0023000000230000
#06159:00535300
#0615b:0000002300004300
#10652:00490000
#10655:00000039
#10855:00390000
#10852:00000049
#11055:00390000
#11052:00000049
#08255:0013
#08656:0014
#0083a0:0000000000000014
#009360:0024000000000000
#010360:14
#0103a0:00240000
#010360:0000000000142400
#0113b0:1323000000000000
#011320:0000132300000000
#0113b0:0000000013230000
#012360:0000142400000000
#0123b0:0000000000000013
#013370:00530000000000000000000000000000
#0133b0:00230000
#014320:0000132300000000
#0153b0:0000001323000000
#015350:0000000000000013
#016350:23
#016360:0000142400000000
#017360:13000023
#017340:00330000
#017320:0033
#017371:0013
#0173b1:00000033
#017391:0000000000000033
#018371:33
#018391:00330000
#0183b1:0023
#018360:0013
#018320:00000023
#0193b0:13
#019370:00230000
#019321:00130000
#019361:0023
#0193b0:0013
#019370:00000023
#019321:00000013
#020361:23
#0203b1:0000000000000013
#021371:0023000000000000
#021320:0013230000000000
#021340:0000001323000000
#021360:0000000000132300
#024320:0000000000000014
#025360:0024000000000000
#026360:14
#026320:00240000
#026360:0000000000142400
#027320:1323000000000000
#0273b0:0000132300000000
#027320:0000000013230000
#028360:0000142400000000
#028320:0000000000000013
#029360:00530000000000000000000000000000
#029320:00230000
#0303b0:0000132300000000
#031320:0000001323000000
#031380:0000000000000013
#032380:23
#032360:0000142400000000
#033370:13000023
#033390:00330000
#0333b0:0033
#033361:0013
#033321:00000033
#033341:0000000000000033
#034361:33
#034341:00330000
#034321:0023
#034370:0013
#0343b0:00000023
#035320:13
#035360:00230000
#0353b1:00130000
#035371:0023
#035320:0013
#035360:00000023
#0353b1:00000013
#036371:23
#036321:0000000000000013
#037361:0023000000000000
#0373b0:0013230000000000
#037390:0000001323000000
#037370:0000000000132300
#041320:00140000
#041360:0024
#041320:0000000000000013
#042320:23
#042360:00140000
#042320:0024
#043320:00130023
#043360:0000005300530000
#043330:0033
#044360:00130023
#044320:0000005300530000
#044350:0033
#0493a0:00140000
#049360:0024
#0493b0:0000000000000013
#0503b0:23
#050360:00140000
#0503a0:0024
#0513b0:00130023
#051370:0000005300530000
#0513a0:0033
#052370:00130023
#0523b0:0000005300530000
#052380:0033
#055360:14
#0553a0:00540000240000000000000000000000
#055361:00140000
#055321:00000000005400002400000000000000
#055360:0014
#0553a0:00000000000000000054000024000000
#0573a0:14
#057340:00240000
#057321:14
#057381:00240000
#058321:00001424
#0583a0:00001424
#059360:0014
#0593b0:00000033
#060360:34
#0603b0:00230000
#060370:00000013
#060390:0000000000000053
#061380:33
#061370:0053000000530000
#061390:00333300
#0613b0:0000005300002300
#062320:00000000130000000053000023000000
#062360:00000000005300003300000000000000
#0623b1:00000000000000001300000000530000
#062371:00000000000000000053000033000000
#0633b1:23
#063371:00130000
#0633b1:0023
#0633b1:0000000000000013
#064371:00530000000000000000000000000000
#0643b1:00230000
#063360:0000000000000013
#064320:00530000000000000000000000000000
#064360:00230000
#0643b0:0000000000130000
#064370:0000000000000023
#064321:0000000000000013
#065361:00230000
#065361:0000000000000014
#066321:00240000
#0653c0:0000000000000012
#066380:00220000
#0673b0:0013
#067360:00000024
#068360:00140000
#0683b0:0023
#068370:00000013
#069320:23
#069370:00130000
#069320:0023
#071320:00130000
#071360:0000000000230000
#071320:0000000000000013
#072360:00230000
#071371:0000000000000013
#0723b1:00230000
#072321:0000000000000014
#073361:00240000
#073321:0000000013230000
#073361:0000000000000012
#074321:00530000000000000000000000000000
#074361:00220000
#073380:0000000000000012
#0743b0:00530000000000000000000000000000
#074380:00220000
#0753b0:00130000
#075370:0000000000230000
#0753b0:0000000000000013
#076370:00230000
#075361:0000000000000013
#076321:00230000
#0763a1:0000000000000014
#077361:00240000
#0773b1:0000000013230000
#077381:0000000000000012
#0783b1:00530000000000000000000000000000
#078381:00220000
#077360:0000000000000012
#078320:00530000000000000000000000000000
#078360:00220000
#0793b0:13
#079360:00240000
#0793a0:0014
#079360:00000023
#0803b0:13
#080360:00240000
#081320:13
#081360:00240000
#081320:0014
#081370:00000023
#082320:13
#082360:00240000
#0833b0:13
#083360:00240000
#083360:0014
#0833b0:00000023
#084360:13
#0843a0:00240000
#085320:13
#085360:00240000
#085360:0014
#085320:00000023
#086370:13
#086320:00240000
#0873b0:13230000
#087370:0053000000000000
#087370:00001323
#0873b0:0000000000530000
#0883b0:13230000
#088370:0053000000000000
#089320:13230000
#089360:0053000000000000
#089360:00001323
#089320:0000000000530000
#090320:13230000
#090360:0053000000000000
#113360:0014
#113320:00000033
#114360:34
#114320:00230000
#114360:00000013
#114340:0000000000000053
#115350:33
#115360:0053000000530000
#115340:00333300
#115320:0000005300002300
#1163b0:00000000130000000053000023000000
#116370:00000000005300003300000000000000
#116321:00000000000000001300000000530000
#116361:00000000000000000053000033000000
#117321:23
#117361:00130000
#117321:0023
#117321:0000000000000013
#118361:00530000000000000000000000000000
#118321:00230000
#117370:0000000000000013
#1183b0:00530000000000000000000000000000
#118370:00230000
#118320:0000000000130000
#118360:0000000000000023
#1183b1:0000000000000013
#119371:00230000
#119361:0000000000000014
#1203a1:00240000
#119320:0000000000000012
#120360:00220000
#121320:0013
#121360:00000024
#122360:00140000
#122320:0023
#123360:1323
#1233b0:00530000
#123321:0013
#123371:00000053
#124321:23
#124360:1323
#1243b0:00530000
#124321:0013
#124371:00000053
#125321:23
#1253b0:13
#125360:00230000
#125370:0013
#1253b0:00000023
#126320:13
#126370:00230000
#126360:0013
#126320:00000023
#1273b0:13
#127360:00230000
#127370:0013
#1273b0:00000023
#1283a0:0000000013230000
#1283b0:0000000000000013
#1293b0:23
#129321:13
#129361:00230000
#1293b1:0000000000000013
#130371:00230000
#129360:0000000000000013
#130320:00230000
#130320:0000000000000012
#131360:00520000000000000000000000000000
#131320:00220000
#130361:0000000000000014
#1313a1:00540000000000000000000000000000
#131361:00240000
#131381:0000000000000012
#1323c1:00520000000000000000000000000000
#132381:00220000
#131320:0000000000000014
#132360:00540000000000000000000000000000
#132320:00240000
#1333b0:13
#133370:00230000
#133320:0000000000000013
#134360:00230000
#133371:0000000000000013
#1343b1:00230000
#1343c1:0000000000000012
#135381:00520000000000000000000000000000
#1353c1:00220000
#134360:0000000000000014
#135320:00540000000000000000000000000000
#135360:00240000
#135360:0000000000000012
#136320:00520000000000000000000000000000
#136360:00220000
#1353a1:0000000000000014
#136361:00540000000000000000000000000000
#1363a1:00240000
#1373a1:14240000
#137320:13230000
#1373b0:00001323
#137361:00001424
#138361:14240000
#138320:13230000
#1383b0:00001323
#138321:00001424
#1393b1:13230000
#139320:16260000
#1393a0:00001424
#139361:00001222
#140381:12220000
#140320:14240000
#140380:00001626
#140321:00001323
#141321:16260000
#141381:00001626
#142321:1653260000000000
#142380:16260000
#1423b0:0053000000000000
#142350:0013
#142320:0000000000260000
#142381:0000000013260000
