This file was generated by Ched 2.7.0.0.
#TITLE ""
#ARTIST ""
#DESIGNER ""
#DIFFICULTY 0
#PLAYLEVEL
#SONGID ""
#WAVE ""
#WAVEOFFSET 0
#JACKET ""
#REQUEST "ticks_per_beat 480"
#00002: 4
#BPM01: 252
#00008: 01
#TIL00: ""
#HISPEED 00
#MEASUREHS 00
#0091a:14
#00914:0014
#01312:14
#01318:0014
#01414:14
#0141a:0014
#01912:14
#0191a:0014
#09714:0014
#0971a:14
#0971f:11
#0981a:14
#09814:0014
#13718:0014
#13712:24
#1371a:24
#13818:0014
#13814:14
#01018:14
#01012:0014
#01118:14
#01114:0014
#0121a:14
#01514:14
#01518:0014
#01612:14
#0231a:14
#02312:0014
#02418:1414
#02414:00140000
#02410:0000000000000041
#02512:14
#02518:0014
#02614:14
#0261a:0014
#02714:14
#02718:0014
#02812:14
#0471a:14
#04712:0014
#04614:0014
#04618:14
#04512:0014
#0531a:0014
#05418:0014
#05414:14
#05512:14
#0551a:0014
#12712:14
#12718:0014
#12814:14
#1281a:0014
#14218:0014
#14214:0000000000140000
#0211a:14
#02112:0014
#0011a:1414
#00114:00140014
#0021a:14
#00312:1414
#00318:00140014
#00412:14
#0051a:1414
#00514:00140014
#0061a:14
#00712:1414
#00718:00140014
#00812:14
#00810:0000000000000041
#02218:14
#02214:0014
#0291a:14
#02914:0014
#03018:14
#03012:0014
#03118:14
#03114:0014
#0321a:14
#0351a:14
#03512:0014
#03912:14
#0391a:0014
#04014:1414
#04018:00140000
#03712:14
#0371a:0014
#03814:14
#03818:0014
#05914:00140000
#05919:0014
#05913:00000014
#0591a:24
#05910:41
#06018:14000014
#06012:00140000
#06112:14
#06119:00140000
#06113:0014
#0611a:00000014
#06212:00140000
#06218:0014
#06214:00000014
#0671a:14
#06714:00140000
#06719:0014
#06713:00000014
#06818:14000014
#06812:00140000
#06912:14
#06913:0014
#06919:00140000
#0691a:00000014
#07012:00140014
#07018:0014
#0711a:1414
#07114:00140000
#07212:1414
#07218:00140000
#07512:1414
#07518:00140000
#07614:00140000
#0761a:1414
#07918:1414
#07914:00140014
#07910:41
#08018:14
#08114:1414
#08118:00140014
#08214:14
#0831a:1414
#08314:00140014
#0841a:14
#08512:1414
#08518:00140014
#08612:14
#08718:1616
#08712:00160016
#08818:16
#08912:1616
#08918:00160016
#09012:16
#09918:14
#09912:0014
#10018:14
#10012:0014
#1011a:14
#10114:0014
#10218:14
#10212:0014
#10318:14
#10314:0014
#1041a:14
#10412:0014
#11318:00140000
#11313:0014
#11319:00000014
#11312:24
#1131f:21
#11414:14000014
#1141a:00140000
#11410:00410000
#1151a:14
#11513:00140000
#11519:0014
#11512:00000014
#1161a:00140000
#11614:0014
#11618:00000014
#12112:14
#12118:00140000
#12113:0014
#12119:00000014
#12214:14000014
#1221a:00140000
#1231a:14
#12318:0014
#1241a:14
#12512:14
#12518:0014
#12614:14
#1261a:0014
#12912:1414
#12918:00140000
#1301a:1414
#13014:00140000
#1331a:1414
#13314:00140000
#13418:00140000
#13412:1414
#13914:0014
#13912:24
#1391a:24
#14018:14
#14014:0014
#14112:24
#1411a:24
#09118:26
#09112:0026
#09218:26
#09212:0026
#09318:2626
#09312:00260026
#09418:2626
#09412:00260026
#11112:24
#1111a:24
#11212:0024
#1121a:0024
#02014:2424
#02018:00240000
#03618:2424
#03614:00240000
#04818:2424
#04814:00240000
#05614:2424
#05618:00240000
#10519:0034
#1061a:34
#10713:0034
#10812:34
#10919:0034
#11018:34
#04418:0034
#04318:0034
#04218:0034
#04118:0034
#04110:41
#04914:0034
#05014:0034
#05114:0034
#05214:0034
#04858:0014
#05654:0014
#08058:14
#08254:14
#0845a:14
#08652:14
#08858:16
#09052:16
#1235a:54
#12358:0054
#1245a:54
#0173a0:14
#017380:0034
#018380:34
#0183a0:0024
#033320:14
#033340:0034
#034340:34
#034320:0024
#0413a0:14
#041380:0034
#042370:34
#042380:0034
#0433a0:34
#043380:0034
#044370:34
#044380:0034
#0453a0:24
#049320:14
#049340:0034
#050350:34
#050340:0034
#051320:34
#051340:0034
#052350:34
#052340:0034
#053320:24
#0633a0:14
#063390:00340000
#063380:0034
#063370:00000034
#064380:34
#064390:00340000
#0643a0:0024
#065320:14
#065330:00340000
#065340:0034
#065350:00000034
#066340:34
#066330:00340000
#066320:0024
#0733a0:14
#073390:00340034
#073380:0034
#0743a0:34
#074390:00340000
#074380:0024
#077320:14
#077330:00340034
#077340:0034
#078320:34
#078330:00340000
#078340:0024
#105380:14
#105390:0034
#1063a0:3424
#107340:14
#107330:0034
#108320:3424
#1093a0:14
#109390:0034
#110380:3424
#117320:14
#117330:00340000
#117340:0034
#117350:00000034
#118340:34
#118330:00340000
#118320:0024
#1193a0:14
#119390:00340000
#119380:0034
#119370:00000034
#120380:34
#120390:00340000
#1203a0:0024
#1233a0:14
#123380:0034
#1243a0:34
#124380:0024
#131320:14
#131330:00340034
#131340:0034
#132320:34
#132330:00340000
#132340:0024
#1353a0:14
#135390:00340034
#135380:0034
#1363a0:34
#136390:00340000
#136380:0024
#141320:1434
#142320:24
#1413a1:1434
#1423a1:24
