This file was generated by Ched 2.6.4.0.
#TITLE ""
#ARTIST ""
#DESIGNER ""
#DIFFICULTY 0
#PLAYLEVEL
#SONGID ""
#WAVE ""
#WAVEOFFSET 0
#JACKET ""
#REQUEST "ticks_per_beat 480"
#00002: 4
#BPM01: 205
#00008: 01
#TIL00: ""
#HISPEED 00
#MEASUREHS 00
#00019:14
#00213:14
#00119:14
#00313:14
#05618:14
#0041a:14
#00410:41
#0051a:14
#00614:14
#00714:14
#00818:14
#00918:14
#01012:14
#01112:14
#01218:14
#01314:14
#01614:14
#0171a:14
#01812:14
#01918:14
#02012:14
#02010:41
#02112:14
#02218:14
#02318:14
#02414:14
#02518:14
#02818:14
#0281f:11
#02912:14
#0301a:14
#03114:14
#03414:14
#0351a:14
#03818:14
#03912:14
#04012:0016
#04018:26
#0401f:21
#04212:16
#04218:0016
#04418:16
#04412:0016
#04312:1616
#04718:0016
#04712:16
#04612:16
#04618:0016
#04818:0016
#04812:26
#05018:16
#05012:0016
#05212:16
#05218:0016
#05210:41
#05118:1616
#05512:0016
#05518:16
#05418:16
#05412:0016
#05718:14
#05812:14
#05912:14
#0601a:14
#0611a:14
#06214:14
#06314:14
#0641a:14
#06410:41
#0651a:14
#06614:14
#0671a:14
#06812:14
#06912:14
#07018:14
#07112:14
#0721a:14
#07212:0014
#0731a:14
#0741a:14
#0751a:14
#07612:14
#0761a:0014
#07610:41
#07712:14
#07812:14
#07918:14
#07914:0014
#04110:41
#0143a0:14
#0153a0:24
#026320:14
#027320:24
#0323a0:14
#0333a0:24
#036320:14
#037320:24
#041380:1626
#045380:1626
#049320:1626
#053320:1626
#080380:14
#081380:24
#082340:14
#083340:24
#0843a0:14
#0853a0:24
#086320:1434
#087320:34342400
