This file was generated by Ched 2.6.4.0.
#TITLE ""
#ARTIST ""
#DESIGNER ""
#DIFFICULTY 0
#PLAYLEVEL
#SONGID ""
#WAVE ""
#WAVEOFFSET 0
#JACKET ""
#REQUEST "ticks_per_beat 480"
#00002: 4
#BPM01: 205
#00008: 01
#TIL00: ""
#HISPEED 00
#MEASUREHS 00
#00415:00131300
#00412:0000000000000013
#00418:2600001300130000
#00410:41
#00518:13130000
#00515:0013001300000013
#00615:0000001300000000
#00618:0013
#01215:0013001300000000
#0121b:23131300
#01212:0000000000130013
#01218:00000013
#01418:00130000
#01415:0000001300000013
#0141b:0013
#0381b:1313
#03818:00130013
#0421b:13130000
#04218:00001313
#04215:0013001300000000
#04212:0000000000130013
#04618:00001313
#04615:0000000000130013
#04612:13
#0471b:13
#04712:0013000000000000
#04718:00130000
#04715:0000001300000000
#06615:00131300
#0661b:0000001300000013
#06715:00131300
#06718:0000001300000000
#0721b:0013001300000000
#07215:00001313
#07212:23130000
#07218:0000000000130013
#01318:13
#0131b:00130000
#01312:0000000000000013
#07312:13
#07315:0013
#0151b:13
#01515:0013000000000000
#01519:00130000
#01513:0000001300000000
#04015:0000130000000023
#04018:0000001300000000
#04012:0000000000130000
#0401b:23
#0401f:21
#04115:00130000
#04118:0013000000000000
#04112:0013
#04110:41
#04418:0000130000000023
#04415:2300001300000000
#00014:12
#0001a:1200000000000012
#00018:0000001200000000
#00016:0012
#00214:1200000000000012
#0021a:12
#00216:0000001200000000
#00218:0012
#00114:0012000000000000
#00118:0000001200001200
#00116:0012
#00718:13130000
#00712:0013000000000000
#00715:0000001300000000
#00818:00131300
#0081b:0000000000000013
#00815:0000001300130000
#00812:26
#00915:13130000
#00918:0013001300000013
#01018:0000001300000000
#01015:0013
#01115:13130000
#0111b:0013000000000000
#01118:0000001300000000
#01618:00001313
#01615:0000000000130013
#01718:00130000
#0171b:13
#01712:0000000000000013
#01818:00131300
#01815:0000001300130000
#0391b:13
#03918:00000013
#03912:0000000000130000
#03915:0000000000000013
#04315:0000001300000000
#0431b:13
#04318:0013
#04515:0013000000000000
#0451b:00130000
#04518:0013
#05012:13130000
#05015:00001313
#05018:0013001300000000
#0501b:0000000000130013
#04818:0000130000000023
#04815:0000001300000000
#0481b:0000000000130000
#04812:23
#04918:00130000
#04915:0013000000000000
#0491b:0013
#05215:0000130000000023
#05218:2300001300000000
#05212:0000000000130000
#0521b:00000013
#05210:41
#05118:0000001300000000
#05112:13
#05115:0013
#05318:0013000000000000
#05312:00130000
#05315:0013
#0541b:13
#05412:13
#05418:00131313
#05415:0000001300130013
#0341b:0000000000000013
#03418:00131300
#03415:0000001300000000
#03512:0013
#03518:0000001300000000
#03515:00130000
#0361b:13
#03612:00000013
#03618:0000000000000013
#03712:13
#03312:0000000000000013
#0331b:13
#03212:13
#0321b:00000013
#03215:0000000000000013
#02315:0000001300000000
#0231b:00130000
#02312:0013000000000000
#02318:13
#02112:0000001300000000
#02118:00130000
#02115:0013000000000013
#0211b:13
#02818:0000001300130000
#02815:00130013
#0281b:0013000000000013
#02812:0013
#0281f:11
#03012:00000013
#03015:00131300
#03018:0000001300000000
#03013:0000000000330033
#0311b:00130000
#03118:13
#0311a:0033003300000000
#0291b:0000000000000013
#02912:13
#02915:00130000
#02914:0033000000000000
#02913:0000003300000000
#0271a:0000001300000000
#02714:00130000
#02718:0013000000000000
#02712:13
#02612:0013
#02618:0000001300000013
#02615:00130000
#0251b:0000000000000013
#02512:00130000
#02515:13
#0241b:0000000000130013
#02415:00000013
#02412:23131300
#02418:0013001300000000
#0221b:0013
#02215:0000001300000000
#0201b:0013
#02012:0000001300000000
#02018:00130000
#02010:41
#06518:0000001300000013
#06515:1313
#0651b:0013000000000000
#06512:00130000
#06818:0013000000000013
#06812:00000013
#0681b:0000000000130000
#06815:0013
#06918:0000001300000000
#06915:0013
#0691b:0000000000000013
#06912:13
#07012:0013
#07018:0000001300000000
#07015:0000130000003333
#07014:0000000000330000
#0741b:13
#07418:0013
#07512:13
#07515:0013
#0751b:13
#07518:0013
#07612:0013001300000000
#07618:00001313
#0761b:23130000
#07615:0000000000130013
#07610:41
#07718:13
#07715:0013
#0781b:13130000
#07812:0013001300000000
#07818:00001313
#07815:0000000000130013
#08015:00000013
#08018:0000130000000013
#0801b:13
#08112:13
#08115:00130000
#08118:0000000000000013
#08315:0000001300000000
#08318:00131300
#08215:0000130000000013
#08212:0013
#08218:0000001300000000
#08418:00000013
#08415:0000130000000013
#08412:13
#0851b:13
#08512:13
#08518:0000003333000000
#08515:0000003333000000
#05615:2300001300000000
#0561b:00130000
#05618:0000000013000013
#05612:0000000000130000
#0551b:13
#05512:0013000000000000
#05518:00130000
#05515:0000001300000000
#05912:13
#05918:0013000000000000
#05915:00130000
#0591b:0000001300000000
#05718:0000001300000013
#05712:13
#0571b:0013000000000000
#05715:00130000
#0581b:0000001300000000
#05815:0013
#06018:2300001300000000
#06012:00130000
#06015:0000000013000013
#0601b:0000000000130000
#0631b:13
#06315:0013000000000000
#06318:00130000
#06312:0000001300000000
#06115:0000001300000013
#0611b:13
#06112:0013000000000000
#06118:00130000
#06212:0000001300000000
#06218:0013
#0641b:0013000000000000
#06415:23131300
#06418:0000001300000013
#06410:41
#0711b:13
#07119:0033000000000000
#07118:0000333300000000
#07918:24
#0791a:00240024
#07912:00240024
#07914:0024
#00318:2325
#00314:00240000
#00312:00000026
#08712:2323
#08718:2323
#08715:00230000
#0871b:00230000
#0191b:23
#01918:00230000
#01915:0023
#01358:5313
#0135b:00630000
#01352:0000000000000053
#0385b:6363
#03858:00530053
#06655:0063
#0665b:0000000000000063
#07352:53
#07355:0063
#00458:16
#04155:00630000
#04152:0053
#0405b:13
#04055:0000000000000013
#04052:0000000000530000
#04455:1300006300000000
#04458:0000000000000013
#00852:16
#0145b:0063
#01758:00530000
#0175b:63
#01752:0000000000000053
#01855:0000000000630000
#0395b:63
#0435b:63
#04358:0053
#0455b:00630000
#04558:0053
#04652:53
#04958:00530000
#0495b:0063
#0485b:0000000000630000
#04852:13
#04858:0000000000000013
#05152:53
#05155:0063
#05352:00530000
#05355:0063
#05258:13
#05255:0000000000000013
#0345b:0000000000000063
#03458:0053
#03552:0053
#0365b:63
#03752:53
#03352:0000000000000053
#0335b:63
#03252:53
#02555:6313
#0255b:0000000000000063
#02552:00530000
#03052:00000023
#03055:0063
#0315b:00230000
#03158:53
#0295b:0000000000000063
#02952:53
#02955:00630000
#02652:0053
#06558:0000000000000053
#06755:0063
#06858:0053000000000000
#07052:0053
#0695b:0000000000000063
#06952:53
#0745b:63
#07458:0053
#07552:53
#07555:0063
#0755b:63
#07558:0053
#07758:53
#07755:0063
#0805b:63
#08058:00230000
#08152:53
#08155:00230000
#08158:0000000000000053
#08255:0000000000000063
#08252:0053
#08358:0053
#08452:53
#08455:00230000
#0855b:63
#08552:53
#05655:13
#06058:13
#06455:0063
#0715b:63
#02052:13
#0053b0:00001323
#006380:13230000
#006320:0000000000130000
#006350:0000000000000023
#0073b0:00001323
#009320:00001323
#010350:13230000
#0103b0:0000000000130000
#010380:0000000000000023
#011320:00001323
#013380:1323
#0133b0:00330000
#013320:0000000000000013
#014350:0023000000000000
#0143b0:0013
#014380:00000023
#015370:00001323
#016320:0013002300000000
#0173b0:1323
#017380:00330000
#017320:0000000000000013
#018350:0023000000000000
#018350:0000000000130000
#018320:0000000000000023
#019350:0013
#019320:0000000000000033
#020320:23
#020350:0000000000130023
#021380:00001323
#0223b0:13230000
#022350:0000000000130000
#022320:0000000000000023
#023380:0013
#0233b0:00000023
#025350:1323
#025320:00330000
#0253b0:0000000000000013
#026380:0023000000000000
#026320:0013
#026350:00000023
#027360:00001323
#029320:1323
#029340:0033000000000000
#029350:00330000
#029330:0000003300000000
#0293b0:0000000000000013
#030380:0023000000000000
#030350:0013
#030330:0000000000330033
#030320:00000033
#031350:23
#031381:1323
#0313a1:0033003300000000
#0313b1:00330000
#032321:13
#032361:0023
#0333b1:13
#033371:0023
#033321:0000000000000013
#034351:0023000000000000
#034381:0013
#0343b1:0000000000003333
#035381:0023000000000000
#035321:0013
#035351:00000023
#0363b1:13
#036371:0023
#037321:13
#037361:0023
#0383b1:1333
#038381:00330033
#0393b1:33
#039381:0023
#040321:0000000000130000
#040351:0000000000000023
#041351:00130023
#041321:0033
#0433b1:13
#043381:00230000
#043381:0013
#0433b1:00000023
#044351:0000001300000000
#044321:0000000000230000
#0453b1:00130023
#045381:0033
#046321:13
#046351:0000002300000000
#047381:00001323
#0483b1:0000000000130000
#048381:0000000000000023
#049381:00130023
#0493b1:0033
#051321:13
#051351:00230000
#051351:0013
#051321:00000023
#053321:00130023
#053351:0033
#055381:00001323
#057351:0013
#057321:00000023
#058321:13
#058351:00230000
#058381:0000000000130000
#0583b1:0000000000000023
#059351:0013
#059321:00000023
#061381:0013
#0613b1:00000023
#0623b1:13
#062381:00230000
#062351:0000000000130000
#062321:0000000000000023
#063381:0013
#0633b1:00000023
#064351:0013
#064321:00000023
#065381:0000000000000013
#0663b1:0023000000000000
#066351:0013
#066321:00000023
#0663b1:0000000000000013
#067381:0023000000000000
#067351:0013
#067321:00000023
#068381:0013000000000000
#0683b1:0000002300000000
#069321:13
#069351:00230000
#0693b1:0000000000000013
#070381:0023000000000000
#070321:0013
#070341:0000000000330000
#070351:0000000000003333
#071351:23
#0713b0:13
#071390:0033000000000000
#071380:0000333323000000
#073320:13000023
#073350:0000333333000000
#0743b0:13000023
#074380:0000333333000000
#075320:13000023
#075350:0000333333000000
#0753b1:13000023
#075381:0000333333000000
#077381:13
#0773b1:00230000
#077351:0013
#077321:00000023
#0803b1:1323
#080381:00530000
#081321:1323
#081351:00530000
#081381:0000000000000013
#0823b1:0023000000000000
#082321:0013
#082351:0000000000003333
#083321:0023000000000000
#083381:0013
#0833b1:00000023
#084321:1323
#084351:00530000
#085321:13
#085351:0000003333002300
#0853b0:13
#085380:0000003333002300
#086320:13
#086350:00230000
#086381:13
#0863b1:00230000
#086351:0013
#086321:00000023
#0863b0:0013
#086380:00000023
