This file was generated by Ched 2.6.4.0.
#TITLE ""
#ARTIST ""
#DESIGNER ""
#DIFFICULTY 0
#PLAYLEVEL
#SONGID ""
#WAVE ""
#WAVEOFFSET 0
#JACKET ""
#REQUEST "ticks_per_beat 480"
#00002: 4
#BPM01: 205
#00008: 01
#TIL00: ""
#HISPEED 00
#MEASUREHS 00
#00013:1414
#00213:1414
#00119:1414
#0041a:14
#00412:0014
#00410:41
#00518:1414
#00514:00140000
#0061a:0014
#00612:14
#00714:1414
#00718:00140000
#0081a:14
#00812:0014
#00918:14
#00914:00140000
#0091a:0014
#01012:14
#0101a:0014
#01114:14
#01118:00140000
#01112:0014
#0121a:1414
#01612:1414
#02018:14
#02014:0014
#02010:41
#0211a:1414
#02112:00140000
#02312:1414
#0231a:00140000
#04012:0014
#04018:26
#0401f:21
#06212:14
#06218:0014
#06312:14
#0631a:00140000
#06314:0014
#0641a:1414
#06414:00140014
#06410:41
#06612:1414
#06618:00140014
#06818:14
#0681a:0014
#06812:00140000
#06814:00000014
#06918:14
#06912:00140000
#0691a:0014
#07218:16
#07212:0016
#07618:0016
#07612:16
#07610:41
#07818:16
#07812:0016
#02214:14
#02218:0014
#02418:1414
#02414:00140014
#02818:00140014
#02814:0014
#0281f:11
#0261a:00000014
#02612:14
#02614:0014
#02618:00140000
#02714:14
#02718:00140000
#02712:0014
#03014:00140000
#03018:0014
#03012:00000014
#0301a:14
#03118:14
#03114:00140000
#0311a:0014
#03812:14
#0381a:00000014
#03814:0014
#03818:00140000
#0411a:14141400
#04110:41
#04214:1414
#04218:00140014
#04412:14
#0441a:0014
#04512:14141400
#04618:14
#0461a:0014
#04612:00000014
#04614:00140000
#0591a:14
#05912:00140000
#05918:0014
#06114:1414
#0611a:00140014
#05614:0014
#0561a:24
#0581a:14
#05814:0014
#06018:0014
#06012:24
#05718:1414
#05712:00140014
#06518:1414
#06512:00140000
#06714:1414
#0671a:00140000
#0481a:0014
#04812:26
#04912:14141400
#05018:1414
#05014:00140014
#0521a:14
#05212:0014
#05210:41
#0531a:14141400
#05414:14
#05412:0014
#0541a:00000014
#05418:00140000
#0861a:14
#08614:00140000
#08618:0014
#08612:00000014
#08212:14
#0821a:00000014
#08218:00140000
#08214:0014
#08312:14
#08316:00140000
#0831a:0014
#04312:1414
#0431a:00140014
#0511a:1414
#05112:00140014
#01314:1414
#0131a:00140000
#01718:1414
#01712:00140000
#07014:14
#07012:0014
#0701a:00140000
#07018:00000014
#07114:14
#0711a:00140000
#07112:0014
#0341a:14
#03412:00000014
#03414:00140000
#03418:0014
#0351a:14
#03516:00140000
#03512:0014
#03212:15
#03214:00000015
#03619:15
#03617:00000015
#08019:15
#08017:00000015
#08412:15
#08414:00000015
#03912:2626
#03918:00260000
#07918:2424
#07914:00240024
#08718:2626
#08712:00260000
#00318:2424
#00314:00240024
#04058:16
#04852:16
#06558:0014
#06754:0014
#03254:00000025
#03252:65
#03659:55
#03657:00000025
#08059:55
#08057:00000025
#08452:65
#08454:00000025
#014380:14
#014390:00340034
#0143a0:0034
#015380:34
#015390:00340000
#0153a0:0024
#018340:14
#018330:00340034
#018320:0034
#019340:34
#019330:00340000
#019320:0024
#025380:14
#025390:00340000
#0253a0:0024
#029340:14
#029330:00340000
#029320:0024
#032320:15
#032340:00000055
#033320:0025
#036390:15
#036370:00000055
#037390:0025
#047380:14
#047390:00340000
#0473a0:0024
#055340:14
#055330:00340000
#055320:0024
#073320:14
#073340:0024
#073381:14
#0733a1:0024
#0743a1:14
#074381:0024
#074340:14
#074320:0024
#075380:14
#0753a0:0024
#075321:14
#075341:0024
#077341:14
#077321:0024
#0773a0:14
#077380:0024
#080390:15
#080370:00000055
#081390:0025
#084320:15
#084340:00000055
#085320:0025
