This file was generated by Ched 2.7.0.0.
#TITLE ""
#ARTIST ""
#DESIGNER ""
#DIFFICULTY 0
#PLAYLEVEL
#SONGID ""
#WAVE ""
#WAVEOFFSET 0
#JACKET ""
#REQUEST "ticks_per_beat 480"
#00002: 4
#BPM01: 135
#00008: 01
#TIL00: ""
#HISPEED 00
#MEASUREHS 00
#0041a:14
#00514:14
#00618:14
#00712:14
#0081a:14
#00810:41
#0091a:14
#01012:14
#01112:14
#01218:14
#01318:14
#01414:14
#01514:14
#02018:14
#02112:14
#0221a:14
#02314:14
#06218:16
#04018:16
#03912:0016
#03918:16
#03818:0016
#03812:16
#03712:0016
#03612:16
#03518:0016
#03512:16
#03412:0016
#03418:16
#05512:16
#05418:0016
#05412:16
#05318:0016
#05212:16
#05112:0016
#05018:16
#05010:0041
#06112:0016
#06118:16
#06012:0016
#05918:16
#05818:0016
#05712:16
#0671a:0014
#0681a:14
#06812:0014
#06912:14
#06918:0014
#07018:14
#02614:14
#02718:14
#0421f:0011
#04413:0024
#05612:0026
#03318:0026
#03310:0041
#04918:0026
#0491f:0021
#06318:0026
#02410:41
#04110:0041
#06410:41
#000390:14
#001390:24
#002330:14
#003330:24
#0163a0:14
#0173a0:24
#018320:14
#019320:24
#0243a0:14
#0253a0:24
#028320:14
#029320:24
#030380:14
#0313a0:24
#031340:0014
#032320:0024
#036380:0016
#037380:26
#040320:0016
#041320:0026
#0423a0:0014
#043380:0024
#045380:0014
#0463a0:0024
#047340:0014
#048320:0024
#050380:0016
#051380:26
#052320:0016
#053320:26
#055380:0016
#056380:26
#057320:0016
#058320:26
#059380:0016
#060380:26
#062320:0016
#063320:26
#063380:0016
#064380:3636
#065380:26
#065330:0014
#066330:3434
#067330:24
#070340:0014
#071340:00000000000000340000000000002400
