This file was generated by Ched 2.7.0.0.
#TITLE ""
#ARTIST ""
#DESIGNER ""
#DIFFICULTY 0
#PLAYLEVEL
#SONGID ""
#WAVE ""
#WAVEOFFSET 0
#JACKET ""
#REQUEST "ticks_per_beat 480"
#00002: 4
#BPM01: 135
#00008: 01
#TIL00: ""
#HISPEED 00
#MEASUREHS 00
#0001b:13000000000000000000000000000013
#00012:13000000000000130000000000000000
#00018:00000013001300000013000013000000
#00015:00000000130000000000001300130000
#00118:00000013000013000000000000000000
#00115:00000000130000130000000000000000
#00112:0000000000130000
#0011b:0000000000000013
#00212:13000000000000000013000000000000
#0021b:13000000000000130000000000000000
#00215:00000013001300130000000013000000
#00218:00000000130000000013001300130000
#0031b:00120000000000000000000000000000
#00315:0012000000000000
#00319:00000012000000000000000000000000
#00312:0000120000120000
#00318:00000000001200000012001200000000
#00316:0000001212000000
#0031c:00000000000000120000000000000000
#00314:0000000000001212
#0031a:00000000000000000000000000120012
#00313:22
#00418:00000013001300000000000000000000
#00415:00130000
#00412:13000000000000130000000000000013
#0041b:00000000000000000013000000000013
#00416:0000000000130000
#00414:00000013
#00419:00000000000000000000001300000000
#00417:00000000000000000000000000130000
#00515:0013130000000000
#00518:00130000001300000000000000000000
#0051b:00000000000000130000000000000013
#00512:00000000000000130013000000000013
#00517:0000000000130000
#00519:00000013
#00514:00000000000000000000001300000000
#00516:00000000000000000000000000130000
#01115:00001300000000000013000000000013
#01112:1300001300001300
#01118:13000000000013000000130000130000
#0111b:0013000013000000
#01315:00130000
#01318:00000000001300000000000000000000
#0131b:0013000000130013
#01317:13000013
#01312:13000000000000130000000013000000
#01316:0013000000000013
#02417:0000000013000013
#02412:1300000013000013
#0241b:13130000
#02416:00130000
#02410:41
#0251b:13130000
#02512:0013000000140000
#02515:0000001300000000
#02518:00000000000000130000000000000000
#02516:00000014
#0251a:0000000000000014
#02517:0013000000000000
#0261b:00000013000000000000130000001300
#02617:00000000000000130000000000000000
#02612:0013
#02618:00000013
#02615:0000000000130013
#02712:0013001300001300
#02715:0000130000000013
#0271b:0000000000130013
#02718:0000001300001300
#02912:1300130000130000
#02918:0013001300000000
#02915:00000000000000130000000000000000
#02917:0000000000130000
#02919:00000013
#0291b:0000130000000013
#02914:00000013
#02916:0000000000000013
#03012:1300001300000013
#0301b:00001313
#03018:0000001300130013
#03015:00001313
#03017:13
#03112:0013001300000000
#03116:00130000
#03115:13
#03117:0013001300000000
#0311b:00130000
#03119:0000000000000000000000000000000000000000000000003333000000000000
#03114:0000000000000000000000000000000000000000000000003333000000000000
#0341b:1313
#03415:0013000000000000
#03418:00000013000000000000000013000000
#03412:1313
#03419:00000000001300000000000000000000
#03414:00000000001300000000000000000000
#03618:0013000000000000
#03615:00000013000000000000000000000000
#03612:13000000001300000000000000000000
#0361b:13000000001300000000000000000000
#0371b:13000000000000130000000000000000
#03715:0013000000000000
#03718:00000013000000000000000000000000
#03719:00000000001300000000000000000000
#03712:13000000000000130000000000000000
#03714:00000000001300000000000000000000
#0381b:13000000001300000000000000000000
#03818:00001300000000000000000013000013
#03815:00000013001300000000130000000000
#03812:13000000000000130000000000130000
#04218:00000000000000000000130000130000
#04215:00000000000000330000001300000000
#04212:00000000000000000000000000000013
#0421f:0011
#0421b:00000033000000002300000000000000
#04219:00330000000000000000000000000000
#0421a:0033000000000000
#04213:00000000003300000000000000000000
#04214:0000003300000000
#04318:00130000001300130000000000000000
#0431b:00000013000000000000000000000000
#04315:13000013000013000000000000000000
#04317:0000000000131300
#04312:00000000000000000000000000130000
#04319:0000000000000013
#04314:00000000000000000000000000000013
#0441b:13
#04418:00001300001300000012001200120012
#04415:00000013000000000000000000000000
#04416:0000000012120000
#04412:00000000001300000000000012001200
#04615:00130000001300000000000013000000
#04618:00000013000000000000000000130000
#04617:00000000000000000000000000000013
#04612:00000023000000130000000000000023
#0461b:0000230000000000000023000000003300000000000000000000000000000000
#0471b:00230023000000001300000000130000
#04717:00000000000000000000130000000013
#04716:00130000000000000000000013000000
#04712:00000023001300000000130000000013
#04715:00000000000000130000000000000000
#04718:0000001300000000
#0481c:0012
#04816:00000000000000000012000000000000
#04813:00000000000000000000001200000000
#04819:0000000000120000
#0481b:0000130000000000003300000000000000000000000000001200000000000000
#04815:0000003300000000000000000000130000000000000000000000120000000000
#04818:0000000000000012
#04812:00000000000000000000000000000012
#0641a:14140000
#0641b:00000000000000001300130000000013
#06412:000000002400000000002400000000130000000000000000
#06415:0000000000001313
#06418:00000000000000000000000000130000
#06416:002400002400000000000000
#06410:41
#06512:00130000000000001300000000000000
#06518:00001300000000000013000000000000
#06513:0000000000130000
#06519:00000000000000000000001300000000
#06514:00000013
#0651a:00000000000000000000000000130000
#06515:0000000000000013
#0651b:00000000001300000000000000000013
#06517:00000000000000130000000000000000
#0701b:00000000001300001300000000001300
#07018:00000000000000000000001300000000
#07012:13000000000000130000000000000000
#07017:00130000000000000000000000000000
#07014:0013000000000000
#07019:00000013000000000000000000000000
#07016:00130000
#07115:00130000
#07118:0000003300000000000013000000000000000000000000000000000000000000
#0711a:00000000000000240000000000000000
#07112:000000000000000000000000000000000000003333000000
#00716:00001200001200000000000000000000
#00718:00000012000000120000130000000000
#0071c:00000000001200000000000000000000
#00712:00000000000000120000000000000000
#00715:00000000000000000013000000000000
#00713:22
#0081b:0000000000130000
#00819:00000013
#00817:0000000000000013
#00812:0000000013000013
#00814:00000013
#00816:0000001300000000
#00810:41
#00915:0000001300131300
#00918:00000000000000001300000000130013
#0091b:0000000000130000
#00912:1313
#00917:13
#01012:0000001300130013
#0101b:00001313
#01015:00001313
#01018:0000000000130013
#01217:0000000000130000
#01219:00000013
#0121b:0000001300000013
#01212:0000000000130000
#01214:00000013
#01216:0000000000000013
#01412:13000000000000130000000013000000
#01417:00130000000000130000000000000000
#01416:00130000
#0141b:00000000001300000013000000130000
#01415:0000000000130013
#01418:00000000000000000000001300000013
#0201b:0000000000130000
#02014:00000013
#02019:00000013
#02016:0000000000130000
#02012:0000001300000013
#02017:0000000000000013
#02316:00120012000000000000000000000000
#02314:00000000001200120000000000000000
#02315:00000023
#02318:00000000000000002200220000230000
#0231c:2222000000000000
#0231a:0000222200000000
#02312:00000000000000000022000000000000
#03218:0000000000120012
#03215:3333000000000000000000000000000000001200000012000000000000000000
#0321c:00001212
#03213:00000000000000000000000000120012
#0321a:3333000000000000000000000000000000000000000000000000000000000000
#03316:00120000000000002600000000000000
#03315:00000012000000000000000000000000
#03314:00000000001200000000000000000000
#03313:00000000000000120000000000000000
#03312:00000013
#0331b:0022000000001300
#03318:0000000000000013
#0331c:22
#0331a:00220000
#03319:0000002200000000
#03310:0041
#03512:1313000013000000
#03519:00130000
#0351b:0000001300000000
#03514:00130000
#03516:0000001300000000
#03517:0013000013000000
#04516:1212000000000000
#0451c:00120012000000000000000000000000
#04514:0000121200000000
#0451a:00000000001200000000000000000000
#0451b:0000000013130000
#04515:00000013
#04518:00000000000000000000000000130013
#04512:00000000000000001300130000000023
#06618:00130013000000000000000000000000
#06615:0013000000000000
#06612:00000000000000000000230000000023
#0661b:00002323
#06616:00000000000000000000000000230000
#06617:00000000000000000000230000000023
#06715:00000000000000000013000000130000
#06718:0000000000131300
#06712:00000000000000000000001300000000
#0671b:00130000000000001300000000000013
#06716:00001300002300230000000000000000
#06815:00001300000013000000130000000023
#06818:00130000001300000000001300230000
#06812:23000000230000002300000000130000
#0681b:00000013000000130000000000000013
#06912:00130000000000001300130000000000
#06915:00001300002300000000000013001300
#06918:00000013000013000013001300000000
#0691b:00000000000000230000000000130013
#00615:00130000000012000000000000001200
#00618:00001300001200000000000000120000
#0061b:00000013000000120000000000000012
#00612:00120012
#00613:0012
#00616:0000000000120000
#00619:00000000000000000012000000000000
#0061c:00000000000000000000001200000000
#01817:0013000013000000
#01819:00000013
#01815:0000000000000013
#01813:0000000000130000
#01812:00130000000000001300000000000000
#0181a:0000000000000013
#01814:00000013
#01818:0000000000130000
#01816:0000001300000000
#01714:00000000000000000000000000130000
#0171b:00000000000013000000000000000013
#01717:00000000000000000000001300000000
#01716:00000000000000000000000000000013
#01719:00000000000000000000000000130000
#01712:00000000000000000000001300000000
#01718:00000000000000000013000000000000
#01715:0013
#01917:00000000000000000000000000000013
#01914:00000000000000000000000000130000
#01919:00000013
#01916:0000000000130000
#01616:00000000000000001300000000000013
#01618:00000000000000000000000000130000
#01615:00000013
#01612:0000000000130000
#0161b:00000000000000001300000000000013
#01617:0000001300000000
#02816:0000130000130013
#02812:13000013
#0281b:0000130000130013
#02817:13
#05012:13000000001300000000000013000000
#0501b:0013000013000000
#05016:00000013000000001300000000000000
#05018:00000000001300000000000000000000
#05010:0041
#05215:0013000000000000
#05218:00000013000000000000000000000000
#05212:13000000001300000000000000000000
#0521b:00000000001300000000000000000000
#05312:13000000000000130000000000000000
#05318:0013000000000000
#05315:00000013000000000000000000000000
#05314:00000000001300000000000000000000
#0531b:13000000000000130000000000000000
#05319:00000000001300000000000000000000
#0511b:1300001300001300
#05112:0013000013000000
#05119:00130000
#05114:00130000
#05116:0000001300000000
#05117:0013000013000000
#0491b:00000013
#04916:00002413
#04915:00130000000000000000000000000000
#04914:00000013000000000000000000000000
#04913:00000000001300000000000000000000
#04912:00000000000000130000000000000000
#0491a:24
#04919:0024000000000000
#04918:00240000
#04917:0000002400000000
#0491f:0021
#05412:13000000001300130000000000000000
#05415:00001300000000000000000000130013
#05418:00000013000000000000000013000000
#0541b:13000000001300000000130000000000
#05417:00000000000000130000000000000000
#0571b:13000000001300000000000013000000
#05712:0013000013000000
#05717:00000013000000001300000000000000
#05715:00000000001300000000000000000000
#05918:0013000000000000
#05915:00000013000000000000000000000000
#0591b:13000000001300000000000000000000
#05912:00000000001300000000000000000000
#0601b:13000000000000130000000000000000
#06015:0013000000000000
#06018:00000013000000000000000000000000
#06019:00000000001300000000000000000000
#06012:13000000000000130000000000000000
#06014:00000000001300000000000000000000
#05812:1300001300001300
#0581b:0013000013000000
#05814:00130000
#05819:00130000
#05817:0000001300000000
#05816:0013000013000000
#05612:0013000000001300
#05617:00000013
#05618:00130000
#05615:00000000001300000000000000000000
#0561b:00000000000000130000000000000000
#05616:0024
#04112:0000001400000000
#04113:00000000000000002400240000330000
#04119:0000000024240000
#04114:0000000000000033
#04115:00000000000000000000000000000033
#0411a:0000003434343434343434340000000000000000000000000000000000000000
#04110:0041
#0611b:13000000001300130000000000000000
#06118:00001300000000000000000000130013
#06115:00000013000000000000000013000000
#06112:13000000001300000000130000000000
#06116:00000000000000130000000000000000
#02112:0000130000130000
#02117:0000130000130000
#0211b:0000001300000000
#02116:0000001300000000
#02217:0013000000000013
#02212:00000013000000000000000000001300
#0221b:00000013
#05518:1313
#05512:00000000130000000000000000130000
#05515:0000001300130000
#0551b:00000000000000000000001300000013
#03915:1313
#0391b:00000000130000000000000000130000
#03918:0000001300130000
#03912:00000000000000000000001300000013
#0401b:0013000000000000
#04015:00130000
#04018:00000000001300000000000000000000
#04017:00000000000000130023000000000023
#04016:00000023
#01512:00000013
#01518:0000000000000013
#01515:00333333000000000033000000000013
#0151b:00000000003333330000003300000000
#06215:13000000000013000000001300000000
#0621b:0000130000130000
#06218:00000000000000001300000000130000
#06212:00000000000000000000000000000013
#0631b:0013000000000000
#06318:000000130000000000002400
#06315:00000000001300000000000000000000
#06317:00000000000000130000000000000000
#06312:00000000000000130000000000000000
#06314:000000000000000000000024
#01155:0023000000000000
#01152:63
#01158:63
#0115b:0023000000000000
#0125b:0000001300000000
#01252:0000001300000000
#0345b:0013
#03455:00000013
#03452:0053
#03458:00000053
#0715a:00000000000000140000000000000000
#0475b:00000013000000000000000000000000
#04752:00000013000000000000000000000000
#00952:53
#00957:53
#01352:00000000000000530000000000000000
#0205b:0000001300000000
#02052:0000001300000053
#02057:0000000000000053
#0165b:00000000000000002300000000000053
#01656:00000000000000000000000000000053
#01657:0000006300000000
#01857:0053000000000000
#02456:00530000
#02452:0023
#0245b:00530000
#02457:0023
#0265b:0000000000000053
#02752:0000005300000000
#02857:63
#0285b:00230000
#02852:63
#02856:00230000
#03057:53
#03052:53
#03157:0000005300000000
#03152:0000005300000000
#03557:0053
#03552:0053
#03752:00000000000000530000000000000000
#0375b:00000000000000530000000000000000
#0455b:0000000000530000
#05056:0013
#0505b:0063
#05052:00000063
#05057:00000013
#05152:0053
#0515b:00000053
#05352:00000000000000630000000000000000
#0535b:00000000000000630000000000000000
#0495b:00000053
#04956:0014
#05852:00000063
#0585b:0063
#05757:0013
#05752:0053
#0575b:00000053
#05756:00000013
#05652:00000063
#05656:0014
#0605b:00000000000000530000000000000000
#06052:00000000000000530000000000000000
#0665b:0013
#06652:0000000000130000
#03356:0016
#05452:00000000000000530000000000000000
#0615b:00000000000000630000000000000000
#0215b:0000005300000000
#02157:0000000000530000
#02152:0000000000530000
#02252:00000053000000000000000000000000
#00856:0000005300000000
#00852:0023
#05558:53
#0555b:00000000000000000000005300000053
#05552:00000000000000000000000000530000
#03955:63
#03952:00000000000000000000006300000063
#0395b:00000000000000000000000000630000
#06255:53
#06252:00000000000000000000000000000053
#06352:00000000000000530000000000000000
#06357:00000000000000530000000000000000
#06356:0000000000130000
#0635b:0000000000130000
#001320:13000023000000000000000000000000
#0013b0:0013
#001380:0000000000230000
#001320:00000013
#001350:0000000000000023
#0073b0:000000000000000000000000000000000000000000000000000000000000000000130000330000003300000033000000
#0073a0:000000000000000000000000000000000000003300330033
#0083b0:23
#008321:13
#008351:00000023000000000000000000000000
#008380:00000013000000000000000000000000
#0083b0:0000002300000000
#008361:0000001300230000
#008321:0053
#009321:13
#009361:00230000
#009370:13
#0093b0:00230000
#010350:13
#010320:00000023000000000000000000000000
#0103b1:00000013000000000000000000000000
#010381:0000002300000000
#011321:13230000
#011351:0033000000000000
#011380:13230000
#0113b0:0033000000000000
#0123b0:13
#012380:00000023000000000000000000000000
#012351:00000013000000000000000000000000
#012321:0000002300000000
#013321:00000000000000130000000000000000
#013361:0000000000230000
#015321:13
#015351:00333333230000000000000000000000
#015380:00130000
#0153b0:00000000003333332300000000000000
#015321:0013
#015351:00000000000000000033230000000000
#015380:0000000000130000
#0153b0:00000000000000000000003323000000
#0163b0:13
#016380:00000023000000000000000000000000
#016351:00000013000000000000000000000000
#016321:0000002300000000
#016370:0000001300230000
#0163b0:0053
#016360:00000000000000000000000000000013
#017320:00230000
#0163b1:00000000000000000000000000000013
#017371:00230000
#018371:0013000000000000
#0183b1:0000002300000000
#019361:13
#019321:00000023000000000000000000000000
#0193b0:13
#019370:00000023000000000000000000000000
#019370:00130000
#0193b0:00000000000000230000000000000000
#019321:00130000
#019361:00000000000000230000000000000000
#0193b1:0000000013230000
#020321:13
#020351:00000023000000000000000000000000
#020380:00000013000000000000000000000000
#0203b0:0000002300000000
#020320:0000000000000013
#021360:0023000000000000
#020371:0000000000000013
#0213b1:0023000000000000
#0213b1:0000001300000023
#021371:0000000000330000
#021320:0000000000130000
#021360:0000000000000023
#022320:00000013000000000000000000000000
#022360:00000023
#024360:00130023
#024320:0053
#0243b1:00130023
#024371:0053
#026321:13
#026361:00000023000000000000000000000000
#026361:00130000
#026321:00000000000000230000000000000000
#0263b1:0000000000000013
#027381:0023000000000000
#027321:0000001300000000
#027351:0000000000230000
#028371:1323
#0283b1:00530000
#028320:1323
#028360:00530000
#030370:13
#0303b0:00230000
#030321:13
#030361:00230000
#031321:0000001300000000
#031341:0000000000000000000000000000000000000000000000003333000000000000
#032351:3333000000000000000000000000000000000000000000000000000000000000
#032361:00230000
#031370:0000001300000000
#031390:0000000000000000000000000000000000000000000000003333000000000000
#0323a0:3333000000000000000000000000000000000000000000000000000000000000
#0323b0:00230000
#034320:0013
#034350:00000023
#034381:00000013
#0353b1:23
#035321:0013
#035361:00000023
#035370:0013
#0353b0:00000023
#0363b0:00000000000000130000000000000000
#036370:0000000000230000
#036361:00000000000000130000000000000000
#036321:0000000000230000
#036321:00000013
#036361:0000000000000023
#036370:00000013
#0363b0:0000000000000023
#0373b0:00000000000000130000000000000000
#037380:00000023
#037321:00000000000000130000000000000000
#037351:00000023
#038381:00000000000000130000000000000000
#0383b1:0000000000230000
#039351:13
#039321:00230000
#039321:00000000000000000000001300000000
#039361:00000000000000000000000000230000
#0393b0:00000000000000000000000000130000
#039370:00000000000000000000000000000023
#039321:00000000000000000000000000000013
#040361:0023000000000000
#040321:00000000000000001323000000000000
#0403b1:00000000000000000000001323000000
#040321:00000000000000000000000000001323
#0413a1:0000143434343434343434340000000000000000000000000000000000000000
#041361:0000002400000000
#041321:00000013
#041331:00000000000000000000000000330000
#041341:0000000000000033
#041351:00000000000000000000000000000033
#042351:23
#042380:13
#042390:00330000000000000000000000000000
#0423a0:0033000000000000
#0423b0:00000033230000000000000000000000
#042321:00130000
#042331:00000000003300000000000000000000
#042341:0000003300000000
#042351:00000000000000332300000000000000
#043321:0000000013230000
#0453b1:0000000000130000
#045381:00000023
#046381:00000000000000130000000000000000
#0463b1:0000000000000000000000000000003333000000000000002300000000000000
#048321:00130000000000000000000000000000
#048351:0000003333000000230000000000000000000000000000000000000000000000
#048380:00130000
#0483b0:0000000000000000003333000000230000000000000000000000000000000000
#0493b0:00000013
#050370:23
#0503b0:0013
#050370:00000023
#050321:00000013
#051361:23
#051321:0013
#051361:00000023
#0513b0:00000013
#052370:23
#052320:00000000000000130000000000000000
#052360:0000000000230000
#052371:00000000000000130000000000000000
#0523b1:0000000000230000
#0523b1:00000013
#052371:0000000000000023
#052360:00000013
#052320:0000000000000023
#053320:00000000000000130000000000000000
#053350:00000023
#0533b1:00000000000000130000000000000000
#053381:00000023
#054321:00000000000000130000000000000000
#054361:0000000000230000
#055381:13
#0553b1:00230000
#0553b1:00000000000000000000001300000000
#055371:00000000000000000000000000230000
#055320:00000000000000000000000000130000
#055360:00000000000000000000000000000023
#0553b1:00000000000000000000000000000013
#056371:0023000000000000
#056321:00000013
#057361:23
#057321:0013
#057361:00000023
#0573b0:00000013
#058370:23
#0583b0:0013
#058370:00000023
#058321:00000013
#059361:23
#0593b1:00000000000000130000000000000000
#059371:0000000000230000
#059360:00000000000000130000000000000000
#059320:0000000000230000
#059320:00000013
#059360:0000000000000023
#059371:00000013
#0593b1:0000000000000023
#0603b1:00000000000000130000000000000000
#060381:00000023
#060320:00000000000000130000000000000000
#060350:00000023
#0613b0:00000000000000130000000000000000
#061370:0000000000230000
#062350:13
#062320:00230000
#062320:00000000000000000000000000000013
#063360:0023000000000000
#063320:00000000000000130000000000000000
#063360:0000000000230000
#063371:00000000000000130000000000000000
#0633b1:0000000000230000
#065351:00000013002300000000000000000000
#066321:00130000
#066331:00000000003300000000000000000000
#066341:0000003300000000
#066351:00000000000000330000000000000000
#066361:0023
#0673b1:00000013003300230000000000000000
#070351:00000000000000000013002300000000
#070321:0000000000001323
#070351:00000000000000000000000000000013
#071351:00230000000000000000000000000000
#0713b0:00130000000000000000000000000000
#071380:0000003333003300230000000000000000000000000000000000000000000000
#071350:00000000000000130000000033000000
#071320:000000000000000000000000000000000000003333230000
