This file was generated by Ched 2.7.0.0.
#TITLE ""
#ARTIST ""
#DESIGNER ""
#DIFFICULTY 0
#PLAYLEVEL
#SONGID ""
#WAVE ""
#WAVEOFFSET 0
#JACKET ""
#REQUEST "ticks_per_beat 480"
#00002: 4
#BPM01: 135
#00008: 01
#TIL00: ""
#HISPEED 00
#MEASUREHS 00
#01315:0000130000000013
#01318:00001300001300000000000000000000
#01312:13000000000000130000000000000000
#0131b:00000013
#02415:0000000013000013
#02418:00130000
#0241b:0013
#02412:00130000
#02410:41
#02518:13000000000000130000000013000000
#0251b:00130000
#02515:0013001300000013
#02512:0000000000130000
#02615:0000000000130000
#02618:00000013
#02612:0000000000000013
#02718:0000130000000013
#02715:0000001300000000
#0271b:00000013
#0301b:0013
#03018:0000001300130013
#03015:00000013
#03012:13
#03615:0013000000001300
#0361b:13
#03612:00000000001300000000000000000000
#03618:00000013000000000000000000001300
#03718:00001300001300000000000000000000
#03715:00000013000000000000000000000000
#03712:13000000000000130000000000000000
#0371b:00000000000000130000000000000000
#03818:00001300000000000000000013000013
#03815:00000013000000000000000000130000
#0381b:00000000001300000000000000000000
#03812:13
#04215:00000000000000000000130000130000
#04218:00333333000000000000001300000000
#0421f:0011
#0421b:00000000003333330000000000000000
#04315:00000013000000000000000000000000
#0431b:33000000000033330000000000000000
#04312:00000000000000000000000000333333
#04418:0013000000000000
#04415:00000013000000000000000000000000
#0441b:00000000001300000000000000000000
#04718:00240000000000000000000013000000
#04715:00000000000000000000000000130000
#04712:00000024000000000000130000000000
#06419:14
#06413:00140000
#06418:002400130000
#06415:0000000000130000
#06414:002400000000000000000000
#06417:002400
#06412:000000000024000000000000
#0641b:00000000000000000000000000333300
#06410:41
#07115:00001300130000130000000000000000
#07118:00130013001300000000000000000000
#00718:00000013000000130000130000000000
#00715:00001300000000000013000000000000
#00712:00000000001300000000000000000000
#00918:0000001300000000
#0091b:00000000000000000000130000000013
#00915:00000013
#00912:1313
#0101b:0000000000130000
#01015:0013
#01012:00000013
#01018:0000000000000013
#0111b:0013
#01115:00000000000000000013000000000000
#01118:0000000000130000
#01112:13000013
#0121b:0000000000130000
#01218:00000013
#01215:0000001300000013
#01418:1300000000000013
#01415:00130000000000000000000000000000
#03518:00130000
#0351b:0000001300000000
#03515:0013000000000000
#03512:1313
#0451b:0013
#04512:0000000000130000
#0451a:00000000000000000000000000000024
#04515:00000033
#0661b:00130000000000000000000000000013
#06612:0000000000230000
#06617:0023
#06618:00000023
#06615:00000000000000000000000000230000
#06718:00000000000000000000000000000013
#06712:00000000000000000033333333000000
#03415:00000000001300000000000000000000
#03418:0033000013000000
#0341b:13
#0181b:0000000000000013
#01815:00130000000000000000130000000000
#01818:0013000000001300
#01812:0013
#01912:00000000000000000000000000000013
#01918:00000000000000000000130000130000
#01915:00000013
#01718:00000000000000000000000000000013
#01712:00000000000000000000000000130000
#01715:0013
#0171b:0000001300000000
#01618:00000000000000000000130000130000
#01612:00000013
#01615:00000000000000001300000000000013
#0161b:0000001300000000
#0461b:0013
#04614:00240000000000000000000000000024
#04618:00000024000000000000000033000000
#04612:00000000002400000000000000000000
#02018:0000000000000013
#0201b:0000001300000000
#02015:00000013
#02112:00130000
#02118:0000001300000000
#0211b:0000000000130000
#02215:0013000000000000
#0221b:00000013000000000000000000000000
#02212:0000000000000013
#0081b:0000001300000000
#00815:00000013
#00818:0000000000000013
#00810:41
#05618:00000000130000130000000000000000
#05615:00000000001300000000000000000000
#05612:00000000000000130000000000000000
#03912:0000001300000000
#03918:00000000000000001300001300000000
#03915:00000000000000000000130000130000
#0391b:00000000000000000000000000000013
#04015:00000000130000130000000000000000
#04018:00000000001300000000000000000000
#06315:000000130000000000000024
#06318:00000000001300000000000000000000
#06312:00000000000000130000000000000000
#0631a:000000000024
#0001b:130000000000000000130000000000000000000000000000000000000000000000000000000000000000000000003300
#00012:13
#00212:13
#00315:0000000000130000
#00318:00000013
#0031b:00333333003333000000000000000000
#00412:00130000
#0041b:00000000000000000000000000000013
#00416:00000000000000000000333333000000
#00515:00130000000000130000000013000013
#00518:00001300000000000013000000130000
#01512:13000013
#01515:00001300000000000000130000000013
#01518:0000130013000013
#0151b:0000001300000000
#02315:00001300000000000023000023000000
#02312:0000001300000000
#02318:00000000230000002300230000230000
#0231b:23
#02818:0000130000130013
#02815:13000013
#02812:00130000
#0281b:13
#02912:13
#0291b:0013000000130000
#02915:00000000130000130000000000001300
#02918:0000001300001300
#03115:00130000
#0311b:0000001300000000
#04815:00000000000000000013000000000013
#04818:00000000000000000000001300001300
#04812:00000000000000000000000000130000
#05218:0013000000001300
#05212:13
#0521b:00000000001300000000000000000000
#05215:00000013000000000000000000001300
#05315:00001300001300000000000000000000
#05318:00000013000000000000000000000000
#0531b:13000000000000130000000000000000
#05312:00000000000000130000000000000000
#05115:00130000
#05112:0000001300000000
#05118:0013000000000000
#0511b:1313
#05018:00000000001300000000000000000000
#05015:0033000013000000
#05012:13
#05010:0041
#05415:00001300000000000000000013000013
#05418:00000013000000000000000000130000
#05412:00000000001300000000000000000000
#0541b:13
#0551b:0000001300000000
#05515:00000000000000001300001300000000
#05518:00000000000000000000130000130000
#05512:00000000000000000000000000000013
#05915:0013000000001300
#0591b:13
#05912:00000000001300000000000000000000
#05918:00000013000000000000000000001300
#06018:00001300001300000000000000000000
#06015:00000013000000000000000000000000
#06012:13000000000000130000000000000000
#0601b:00000000000000130000000000000000
#05818:00130000
#0581b:0000001300000000
#05815:0013000000000000
#05812:1313
#05715:00000000001300000000000000000000
#05718:0033000013000000
#0571b:13
#06118:00001300000000000000000013000013
#06115:00000013000000000000000000130000
#0611b:00000000001300000000000000000000
#06112:13
#06212:0000001300000000
#06218:0013
#06215:00000000000000000000000000130000
#0621b:00000000000000000000330000000013
#07015:00000000000000130000000000000000
#0701b:00333333330000000000000000000000
#04114:0000000000240000
#04118:0024
#0411b:00000000000000000000000000333333
#04110:0041
#0491a:24
#04914:0024000000000000
#04918:00240000
#04912:0000002400000000
#04916:0024
#0491f:0021
#06915:00000000002300000000000000000000
#06918:00000000000000230000000000000000
#03316:0024
#03312:24
#03318:0024000000000000
#03314:00240000
#0331a:0000002400000000
#03310:0041
#06818:00000000000000000000000000000023
#06812:00333333000000000000000000230000
#0681b:00000000003333330000000000000000
#00618:00003333000000000033333300000000
#0061b:00000000003333330000000000333333
#0651b:0033000000000000
#06512:00000000000000000033333333333300
#04752:00000014000000000000000000000000
#0345b:53000013
#03458:0053
#00952:53
#0095b:00000000000000000000000000000053
#01352:00000000000000530000000000000000
#01655:00000000000000000000000000000053
#01858:0053000000000000
#02458:00630000
#0245b:0023
#02452:00630000
#02455:0023
#02652:0000000000000063
#02755:0000006300000000
#03052:53
#03058:0000000000000053
#03552:0053
#03752:00000000000000530000000000000000
#0375b:00000000000000530000000000000000
#04552:0000000000630000
#06657:0013
#06652:0000000000130000
#0665b:00000000000000000000000000000053
#04956:0014
#02058:0000000000000053
#0205b:0000006300000000
#0225b:00000063000000000000000000000000
#0085b:0000005300000000
#0395b:00000000000000000000000000000053
#06352:00000000000000530000000000000000
#06355:0000000000130000
#0005b:00000053000000000000000000000000
#00252:53
#00358:00000053
#00452:00530000
#00558:0053000000000000
#01152:53
#01255:0000001300000000
#01455:00530000000000000000000000000000
#01555:00000000000000000000000000000053
#01952:00000000000000000000000000000053
#02158:0000006300000000
#0215b:0000000000630000
#02855:53
#02852:00230000
#0285b:53
#02858:00230000
#0315b:0000005300000000
#03356:0014
#03858:00000000000000000000000000000053
#04055:00000000000000530000000000000000
#0465b:0053
#05055:0063
#05052:63000013
#0515b:0063
#05352:00000000000000630000000000000000
#0535b:00000000000000630000000000000000
#05552:00000000000000000000000000000063
#05455:00000000000000000000000000000063
#05652:00000000000000530000000000000000
#05658:00000000000000530000000000000000
#05758:0053
#0575b:53000013
#05852:0053
#0605b:00000000000000530000000000000000
#06052:00000000000000530000000000000000
#06158:00000000000000000000000000000053
#06258:0053
#0625b:00000000000000000000000000000053
#07055:00000000000000530000000000000000
#07155:00000000000000530000000000000000
#0003b0:000000000000000000130000000000000000000000000000000000000000000000000000000000000000000000003300
#000380:000000000000000000000033
#0013b0:33230000
#001320:0013
#001350:0000000000230000
#0013b0:00000013
#001380:0000000000000023
#002320:13
#002350:00000023
#0033b0:13333333003333230000000000000000
#003380:00330000
#003380:00000013
#0043b0:23
#004320:00000000130000000000000000230000
#004360:00000000000000000033333333000000
#005380:0013000000000000
#0053b0:00000000002300000000000000000000
#006380:00133333000000003333333300000000
#0063b0:00000000333333330000000033333333
#007380:23
#007320:000000000000000000000000000000000000000000000000000000000000000000130000330033003300330033003300
#008320:23
#0083b0:0000001300000000
#008380:0000000000230000
#009320:13
#009350:00230000
#009380:00000000000000000000000000130000
#0093b0:00000000000000000000000000000033
#010380:0000002300000000
#011320:13
#011350:0000002300000000
#011380:00000000000000000000000000130023
#013320:00000000000000130000000000000000
#013350:0000000000230000
#014350:00130000000000000000000000000000
#014320:00000023
#015350:00000000000000000000000000000013
#016320:0023000000000000
#016350:00000000000000000000000000000013
#017320:00230000
#017380:00000000000000000013002300000000
#018380:0013000000000000
#0183b0:0000002300000000
#019320:13000000000000332300000000000000
#019350:00000033330000000000000000000000
#019320:00000000000000000000000000000013
#020350:00230000
#0203b0:0000001300000000
#020380:0000000000230000
#020380:0000000000000013
#0213b0:0023000000000000
#021380:0000001300000023
#0213b0:0000000000330000
#0223b0:00000013000000000000000000000000
#022380:00000023
#024380:00130023
#0243b0:0053
#024321:00130023
#024351:0053
#0263b1:13000000000000332300000000000000
#026381:00000033330000000000000000000000
#026321:0000000000000013
#027351:0023000000000000
#027351:0000001300000000
#027321:0000000000230000
#028351:1323
#028321:00530000
#0283b0:1323
#028380:00530000
#030320:13
#030350:00230000
#030380:0000000000000013
#0313b0:0023000000000000
#0313b0:0000001300000000
#032380:0023
#0343b0:13
#034380:00003323000000000000000000000000
#034380:0013
#0343b0:00000023
#035320:0013
#035350:00000023
#0363b0:00000000000000130000000000000000
#036380:0000000000230000
#0373b0:00000000000000130000000000000000
#037380:00000023
#037321:00000000000000130000000000000000
#037351:00000023
#038321:00000000000000130000000000000000
#038351:0000000000230000
#038381:00000000000000000000000000000013
#0393b1:00230000
#0393b1:00000000000000000000000000000013
#040381:0023000000000000
#040351:00000000000000130000000000000000
#041321:00230000
#0413b1:00000000000000000000000013333333
#042381:33333333000000002300000000000000
#0423b1:00000000333333330000000000000000
#0423b1:00000000000000000000000000000013
#0433b1:33
#043381:00230000000000000000000000000000
#043381:00000000001300000000000000000000
#0433b1:00000000000033332300000000000000
#043321:00000000000000000000000013333333
#044351:23
#044321:0013
#044351:00000033
#045321:33
#045351:00230000
#045321:0000000000130000
#045351:00000000000000000000000033230000
#0463b1:0013
#046381:00000000000000000000000033230000
#047381:00000000001300000000000000000000
#047391:0000003300000000
#0473a1:00000000000000330000000000000000
#0473b1:0023
#0473b1:00000000000000000000000000000013
#0483b1:00330000003300230000000000000000
#048391:0033330000000000
#050321:13
#050351:00003323000000000000000000000000
#050351:0013
#050321:00000023
#0513b1:0013
#051381:00000023
#052321:00000000000000130000000000000000
#052351:0000000000230000
#053321:00000000000000130000000000000000
#053351:00000023
#0533b0:00000000000000130000000000000000
#053380:00000023
#0543b0:00000000000000130000000000000000
#054380:0000000000230000
#054350:00000000000000000000000000000013
#055320:00230000
#055320:00000000000000000000000000000013
#056350:0023000000000000
#056320:00000000000000130000000000000000
#056350:00000023
#056381:00000000000000130000000000000000
#0563b1:00000023
#0573b1:13
#057381:00003323000000000000000000000000
#057381:0013
#0573b1:00000023
#058321:0013
#058351:00000023
#0593b1:00000000000000130000000000000000
#059381:0000000000230000
#0603b1:00000000000000130000000000000000
#060381:00000023
#060320:00000000000000130000000000000000
#060350:00000023
#061320:00000000000000130000000000000000
#061350:0000000000230000
#061380:00000000000000000000000000000013
#0623b0:00230000
#062380:0013
#0623b0:00000000000000000000332300000000
#0623b0:00000000000000000000000000000013
#063380:0023000000000000
#063320:00000000000000130000000000000000
#063350:0000000000230000
#0643b0:00000000000000000000000013333300
#064380:00000000000000000000000000000033
#065380:00330000000000000000000000000000
#0653b0:00003323000000000000000000000000
#065320:00000000001300333333333333333300
#065360:00000000000000000000000000000023
#0663b0:00130000
#0663a0:00000000003300000000000000000000
#066390:0000003300000000
#066380:00000000000000330000000000000000
#066370:0023
#0663b0:00000000000000000000000000000013
#067380:00230000
#067320:00000000000000001333333333000000
#067360:00000000000000000000000000230000
#068320:13333333000000000000000000000000
#068350:00230000
#0683b1:00000000133333330000000000000000
#068381:00000000000000003300332300000000
#068381:00000000000000000000000000000013
#069381:00000023000000000000000000000000
#069321:0013
#069331:00000000000000000033000000000033
#069341:0000000000330033
#069351:00000000000000000000003300330000
#069361:00000033
#070321:23
#070370:13
#0703b0:00333333332300000000000000000000
#070350:00000000000000130000000000000000
#070320:00000000000000000000000000000023
#071350:00000000000000130000000000000000
#071320:000000000000000000000000000000000000333333230000
