This file was generated by Ched 2.7.0.0.
#TITLE ""
#ARTIST ""
#DESIGNER ""
#DIFFICULTY 0
#PLAYLEVEL
#SONGID ""
#WAVE ""
#WAVEOFFSET 0
#JACKET ""
#REQUEST "ticks_per_beat 480"
#00002: 4
#BPM01: 135
#00008: 01
#TIL00: ""
#HISPEED 00
#MEASUREHS 00
#00012:13000013000000130000000000000013
#00015:00000000130000000013000013000000
#00018:00000000001300000000001300130000
#0001b:00000000000000130000000000000000
#00115:00000013000000000000000000000000
#00118:00130000
#00112:0000001300001300
#0011b:00000000000000131300000000000000
#00117:0000000000130000
#00116:0000000000000013
#0021b:13000013000000130000000000000000
#00218:00000000130000000013000013000000
#00215:00000000001300000000001300130000
#00212:00000000000000130000000000000000
#00318:00120000000000000000001200000000
#00315:0012000000001200
#00312:23000012000000000000000000000000
#00319:0000120000000012
#00316:00000000001200000000000000000012
#00313:0000001200000000
#0031a:00000000000000120000000000000000
#00317:0012
#00314:00000000000000000012000000000000
#0031b:0000000000120000
#0031c:00000000000000000000000000120000
#00415:00000013001300000000001300130000
#00418:0000130000131300
#00412:00000000000000130000000000000013
#0041b:00000000000000130013000000000013
#00515:0013130000000000
#00518:00130000001300000000000000000000
#0051b:00000000000000130000001300130000
#00516:00000000000000130000000013000000
#00517:00000000000000000013000000000013
#00512:0000000000000000000000000000000000000033333300000000000000001300
#00616:00120012120012000000000000000000
#00619:0012000000000012
#0061a:00000000001200000000000000000000
#00612:00000000000000120000000000000000
#0061b:0012
#00617:00000000000000000012000000000000
#00613:0000000000120000
#0061c:00000000000000000000001200000000
#00618:00000012
#00614:00000000000000000000000000120000
#00615:00000000000000000000000000000012
#00715:00120000000000000000000000000000
#00719:0012000000000000
#00712:00000012001200000000000000000000
#00718:00000000001200000000000000000000
#0071c:22000000000000120000000000000000
#00716:00000000000000120000000000000000
#00818:00001313000000000000000000000000
#00812:13000000001313000000000000000000
#0081b:0000000013130000
#0081a:00000013
#00819:0000000000000013
#00814:00000000000000000000000000130000
#00810:41
#00912:1300001300000000
#00914:0013
#00919:0000000013000013
#00916:00000000000000000000130000130000
#0091b:00001313000000000000130000000000
#0091a:00000013
#00918:13
#00915:00000000000000000000000000000013
#01012:0013000000130013
#01018:00000000001300000000000000000000
#01015:00001313
#01116:00000000001313000000000000000000
#01115:0013
#0111a:00000000000000000013000000000000
#01114:0000000000130000
#01113:00000013
#01118:00000000000000000000000000130000
#01112:00000000000000000000000000000013
#0111b:13000000000000130000000000000000
#01119:00000000000000000000001300000000
#01117:0013000000000000
#01212:1300000000130000
#01213:00000013
#01216:0000000000000013
#01215:0013000000000000
#0121b:00000000001313000000000033000000
#01217:0000000000130000
#0131b:00000000001300230000002300002300
#01312:00131300
#01315:00000000001300000000130000000000
#01318:00000000130000000023000000000013
#01412:12120000
#01417:00120012001200000000000000000000
#01415:0012000000120000
#0141c:00000000000000120000000000000000
#01416:00000000000000120000000000000000
#0141b:00000000000000000012000000000000
#0141a:00000000000000000000001200000000
#01414:00000012
#01419:00000000000000000000000000120000
#01413:0000000000000012
#01418:00000000000000000000000000000012
#01512:12000012
#01515:00120000000000000000000000000000
#01518:00001212000000000000000000120000
#01513:00120000
#01516:00000000001200000000120000000000
#01519:00000000000012120000000000000000
#01514:00000000000000001200000000001212
#0151a:00000000000000000012000000000000
#0151c:00000000000000000000001200000000
#02318:00130013001300130023000000230000
#02312:23000000230000000000000000230000
#02316:0023002300000000
#02315:0000000023232300
#0231b:00000023
#03216:00000000000000002412001200000000
#0321c:0000000000120000
#0321a:0000000000000000000000000000000000140000000000001200000012000000
#03214:24000000000000000000000000120012
#03218:0014000000000000000000000000000000000000000000000000000000000000
#03312:00120000000000002c00001300000000
#03313:00000012000000000000000000000000
#03314:00000000001200000000000000000000
#03315:00000000000000120000000000130000
#03318:2200000000001313
#03319:0022000000000000
#0331a:00220000
#0331b:0000002200000000
#03310:0041
#0341b:13001300001300000000000000001300
#03418:00000013000000000000000000000000
#03412:13000000001300001300000000000000
#03416:0000000000130000
#03415:00130000
#03517:13130000
#0351b:0013000013000013
#03512:00000000130000000000001300000000
#03514:0000001300000000
#03516:0013000013000000
#03519:0000001300000000
#03518:00000013
#03515:00000000000000000000000000130000
#03614:0013000000000000
#03619:00000013000000000000000000000000
#03612:13000000001300000000001300000000
#0361b:00000000001300130000000000000000
#03617:00130000000000000000000000000000
#03616:00130000
#03618:00000000000000000000130000000013
#03615:0000000000000013
#03712:13000000001300000000001300000000
#0371b:1300000013000013
#03718:00001313000000130000000013000000
#03715:00000000000013000000000000130000
#03812:1300000000130000
#03813:0013000000000000
#03819:00000013000000000000000000000000
#0381a:00000000001300000000000000000000
#03818:00130000000000000000000013001300
#03815:00000000000013000000000000130000
#0381b:00000000000000000000000000000013
#03814:00130000
#03912:2300230013130000
#0391b:00000023000000230013001300000000
#03914:0000000000001313
#03919:00000000000000000000000000130013
#03915:00230000002300000000000000000000
#03918:0023002300000000
#04015:13131300001300001300000013001300
#04018:0013001300001300000000001300000000001300000013000000000000001300
#04012:00000000130000000023000000000023
#0401b:00000000000000130000000023000000
#04112:00000000000000000000240012120012
#04118:0000000000000000000000000000000000000000000000000012000012000000
#04116:0023
#0411a:0000003434343434343434340000000024000000000000000000000000000000
#04117:0000000000230000
#04110:0041
#0421a:12001200000000000000000000000012
#04214:00120012000000000000000000000000
#0421c:0000121222000000
#04216:0000000000000000000012000000120000000000000012000000000000000012
#04218:00000000000000000000120000120000
#04212:00000000000000000000000000120000
#0421f:0011
#04312:00120000000000000000000012000000
#0431c:00000012000000000000000000000000
#04316:00000012000000120000000000000000
#04318:00000000001212000000000000120000
#04314:0000000000000000000000120000000000000000000000000000000012000000
#0431a:12000000000000000000000000000012
#04416:12000012000000000000000000000000
#04418:0000000012000000000000000000001300000000000000000000000000000000
#0441a:00000000001200000000000000000000
#0441c:00000000000000000012000000120000
#04412:0000000000120012
#04419:00000000000000000000001200000012
#04415:00000000000000131300000012000000
#04515:13131300000000000013000000000000
#04518:0013001300001200000000000000000000000000130000000000160000000000
#04514:00120000
#0451a:00000000001200000000000000000000
#04516:0000001200000000
#04512:00000000000000001300000016000023
#0451b:00000000000000000000000000000023
#04616:00000000000000000000000000130014
#04615:00231300000000130000000000000000
#04612:00161313
#04618:0000001300002600000000001300000000000000000000000000000000000000
#0461b:00000000002300001300000000000023
#04716:00140000000000000000000000000000
#04712:00230023001300000000130000000012
#04715:00000000000013000000000000120000
#04718:00000000000000130000000000000000
#0471b:0013
#04717:0000000000130000
#0471c:00000012
#04719:0000000000000012
#04818:00131300001300000000000000120000
#04815:0000001300000000000000001300000000000000000000000000000000000000
#04812:00131200
#0481b:00000000000000130012000000000000
#04817:0000000000120000
#04813:00000000000000000000001200000000
#0481c:00000012
#04814:0000000000000012
#04819:00000000000000000000000000000012
#06218:00000000000000000016001600130013
#06212:2300000016160000
#06215:0000000000001313
#06219:00002300000000230000000000000000
#06217:00000023000000000000000000000000
#0621b:0000002300000000
#06214:00230000230000000000000000000000
#06216:00000000002300000000000000000000
#0631b:00131300
#06315:130000000000000000130000000000000000130000000000000000000000000000000000000000000000000023000000
#06318:000000120000120000000000000000130000000000000000000000000000000000000000000000002300000000000000
#06316:0000001200000000000000000000000000000000000000000000000000000000
#06312:00000000000000130000000000000000
#06314:0000000000130000
#06319:0000000000130000
#06412:14000000000000001400000000000013
#0641a:00141400
#06416:0000000000130000
#0641b:00000000000000000000130000000013
#06418:000000002300000023000000000000000000130000130000
#06415:000000002300000000000000000000000000000023000000000000000000000000000000000000130000000000000000
#06410:41
#06515:00130000000000000013130000130000
#06518:0000000013000000000000000000000016000013000016000000000013000000
#06512:00000013
#0651b:00000000000000000000000000000013
#06613:00000013000000000000000000000000
#06619:00130000
#06614:00000000001300000000000000000000
#0661a:0000001300000000
#06615:00000000000000130000000000000000
#06618:0013000000002600
#06616:0000000000000013000000000000000000000000000000000000000000002300
#06612:00130000000000000000230000260000
#0661b:00000000000000002300000000000023
#06617:0000000000230000
#06712:00140014000000000000000016000000
#06716:00001400002400240000000000000000
#0671a:0000002414000000
#0671b:00000000000000000000001300000000
#06718:0000000000000000000000000000000000000013000000000000160000001600
#06715:00000000000000000013130000000000
#06818:00001300000013000013001300000000
#06815:00000013230000130000130000000000
#06812:23130000000000002300000013230000
#06816:00000000000000000000000000000014
#0681b:00000000001300000000000000230023
#06915:00001300000000000013001300000000
#06918:00000013000000000000000013001300
#0691b:00000000002300001300130000000000
#06912:00130000000000230000000000130013
#06916:00000000002300000000000000000000
#0701b:13000000000000000023000000000023
#07018:00130000130000001300000023001300
#07015:00001300001300130023001300000023
#07012:00000013000000000000000023000000
#07119:00000013000000000000000000000000
#07112:0000130000000013
#07118:000000000000000000000000000000130000000000000000000000000000000000000000000000001300000000000000
#0711b:00000013
#07115:000000000000000000000000000000000000001300000000
#0711a:00130000000000240000000000000000
#07113:0013000000000000
#07116:0000000000130000000000000000000000000000000000000000000000000000
#01615:00001313000000000000000000000000
#0161b:13000000001313000000000000130000
#01612:0000000013130000
#01616:00000000000000000000000013130000
#01617:00000000000000000000000000000013
#0201b:1300000000130013
#02012:0000001300001300
#02017:00000013
#02016:0000000014130013
#02018:0013000000000000
#01817:0013000013000000
#01815:0000000000000013
#01813:0000000000130000
#0181b:13
#01812:00130000130000001300000000000000
#01814:00000013
#01818:0000000000130000
#01816:0000001300000000
#0181a:00000000000000000000000000130000
#01714:00000000000000000000000000130000
#01717:1300001300001300
#01716:00000000000000000000000000000013
#01719:0000000000000013
#01712:13000000000013000000131300000000
#01718:00000000000000000013000000000000
#01715:0013
#0171b:00001313000000000000000000000000
#0191b:00000000000000130000000000000013
#01916:00000000000000000000000000140000
#01912:00130013
#01918:00000000000013000013130000000000
#01915:00000000001300001300000000000000
#02112:1300130000130000
#02117:1300130000130000
#0211b:0013001300000000
#02116:0000001300000013
#02113:00001313
#02118:00000000000000000000000000000013
#02217:00000013000000000000000000000000
#02212:0013001300130013
#02215:13001313
#0221c:00000000002200000022000000220000
#02218:00000000000000220000002200000000
#02417:0000001300130013
#02412:1300001300130013
#0241b:13131300
#02418:0013000000000000
#02416:00131300
#02419:00000000001300130013001300000000
#02414:00000000000000000013001300000000
#02410:41
#0251b:1300131300000000
#02512:0013000000141300
#02518:00000000000000130000000000001400
#02517:0013000000000000
#02515:00000000000000001300000000130013
#0251a:0000000000140000
#0261b:00000013000000000000130000000000
#02616:0000130000130000
#02612:00000000000000131300000000001300
#02618:00000013
#02617:0013
#02615:00000000000000000000000000130000
#02715:00001300130000000000000000130000
#0271b:13000000001300001300130013000000
#02712:0000001300000013
#02718:00130000000013000000000000001300
#02918:0000131300000000
#02915:00000013000000130000000000000000
#02917:00000000000000000000001300000000
#02919:00000000000000000000000000130000
#0291b:00001300000000001300000000000013
#02912:1313000013130000
#02914:00000013
#02916:0000000000000013
#03016:00000000001300000014000000130000
#0301a:0000000014000013
#03012:1300000000141313
#0301b:0000131300000000
#0311a:0014000000000000
#03116:0000140000000000000013000000130000000000000000000014000000000000
#03112:14000024
#0311b:0000131323000000
#02816:0013001300130013
#02812:13130013
#0281b:0013001300130013
#02817:13130000
#02814:00130013001300130000000000000000
#02819:00000000001300130000000000000000
#04915:00130000000000000000000000001300
#04918:00000013000000000000001300160000
#0491b:00000000001300130000000000000000
#04912:2326292c2c001600
#0491f:0021
#05012:13001300001300000000130000001300
#05015:00000013000000000000000000000000
#0501b:13000000001300001300000013000000
#05017:0000000000130013
#05018:00130000
#05016:0013
#05010:0041
#05116:13130000
#05112:0013000013000013
#0511b:00000000130000000000001300000000
#05119:0000001300000000
#05117:0013000013000000
#05114:0000001300000000
#05118:00000013
#05115:00000000000000000000000000130000
#0531b:13000000001300000000001300000000
#05312:1300000013000013
#05315:00001313000000130000000000130000
#05318:0000001300001300
#0541b:1313001300130000
#05412:00000013001300000000000000000013
#05415:0000000000001313
#05418:00000000000000000000000000130000
#05416:00140000140000000000000000000000
#0551b:2300230013130000
#05512:00000023000000230013001300000000
#05519:0000000000001313
#05514:00000000000000000000000000130013
#05518:00230000002300000000000000000000
#05515:0023002300000000
#05618:13131300001300000000000016001300
#05615:0013001300000000000000000000130000000000000013000000000000000000
#05612:00000000130000002c00000000160000
#05215:00000000000000000000130000000013
#05218:00000000000000000000001300001300
#05212:00000013001300130000000000000000
#0521b:13001300001300000000000000000000
#05216:00130000000000000000000000000000
#05217:00130000
#0571b:13001300001300000000130000001300
#05718:00000013000000000000000000000000
#05712:13000000001300001300000013000000
#05716:0000000000130013
#05715:00130000
#05717:0013
#05817:13130000
#0581b:0013000013000013
#05812:00000000130000000000001300000000
#05814:0000001300000000
#05816:0013000013000000
#05819:0000001300000000
#05815:00000013
#05818:00000000000000000000000000130000
#06012:13000000001300000000001300000000
#0601b:1300000013000013
#06018:00001313000000130000000000130000
#06015:0000001300001300
#06112:1313001300130000
#0611b:00000013001300000000000000000013
#06118:0000000000001313
#06115:00000000000000000000000000130000
#06116:00140000140000000000000000000000
#05918:00000000000000000000130000000013
#05915:00000000000000000000001300001300
#0591b:00000013001300130000000000000000
#05912:13001300001300000000000000000000
#05917:00130000000000000000000000000000
#05916:00130000
#00158:00130000
#0365b:00000000001300000000000000000000
#0445a:00000000001200000000000000000000
#0715a:00000000000000140000000000000000
#01252:0000001300000000
#0125b:0000005300000000
#01257:0000000000230000
#00852:2300005300000000
#00858:00000023000000000000000000000000
#00952:53
#0095b:00000053000000000000000000000000
#0165b:2300006300000000
#01655:00000023000000000000000000000000
#01752:63
#01857:0053000000000000
#02052:0000001300000000
#02056:0000000000000053
#0205b:0000001300000000
#0215b:0000005300000000
#02157:0000000000530000
#02152:23
#02752:0000005300000000
#03052:53
#0245b:00232300
#02457:0000002300230000
#02459:00000000005300530053005300000000
#02456:0023
#02454:00000000000000000053005300000000
#02452:0000000000230053
#02552:0053000000000000
#0285b:0000002300630000
#02852:23230000
#02854:00630063006300630000000000000000
#02856:0023002300000000
#02857:00230000
#02859:00000000006300630000000000000000
#0315b:0013
#03352:001c
#0355b:0053
#03752:63
#0375b:0053
#0465b:0053
#0535b:53
#05352:0063
#05152:0063
#04952:001c
#05252:00000000001300000000000000000000
#0505b:53001353
#05056:00005313
#05052:0000000000230000
#05057:0000000000000023
#06052:63
#0605b:0053
#05752:63001363
#05757:00006313
#0575b:0000000000230000
#05756:0000000000000023
#0585b:0053
#0595b:00000000001300000000000000000000
#05652:001c
#0675a:0014
#06752:00000014000000000000000000000000
#04752:00000013000000000000000000000000
#06359:0000000000130000
#06354:0000000000130000
#0665b:0013
#06652:0000000000130000
#03452:0013
#03457:00000013
#0003b0:13000023000000000000000000000000
#0013b0:13
#001380:00000023000000000000000000000000
#001360:0013
#001320:0000000000230000
#001370:00000013
#0013b0:0000000000000023
#002320:13000023000000000000000000000000
#0023b0:0000000000000013
#0023a0:000000000000000000000033
#002390:000000000000000000000000000000000000000000000033
#003380:23
#0043b0:13
#004380:00000023000000000000000000000000
#005320:0000000000000000000000000000000000001333333300000000000000000000
#005360:00000000000000000000002300000000
#007320:00000000000000000014000000000000
#007340:0000000000340000
#007360:00000000000000000000002400000000
#007381:00000000000000000012000000000000
#0073a1:0000000000320000
#0073c1:000000000000000000000000000000000000000000000000000000000000000000320000320000003200000032000000
#0073b1:000000000000000000000000000000000000003200320032
#0083c1:22
#008320:13
#008350:00000023000000000000000000000000
#008381:00000013000000000000000000000000
#0083b1:0000002300000000
#008320:0000001300000000
#008360:0000000000230000
#009320:13
#009360:00000023000000000000000000000000
#0093b1:00000013000000000000000000000000
#009371:0000002300000000
#010381:13
#0103b1:00000023000000000000000000000000
#010320:00000013000000000000000000000000
#010350:0000002300000000
#010381:0000001300330023
#0103b1:00003333
#011361:13
#011321:00000023000000000000000000000000
#011370:00000013000000000000000000000000
#0113b0:0000002300000000
#0123b0:13
#012380:00000023000000000000000000000000
#012351:00000013000000000000000000000000
#012321:0000002300000000
#0123b0:0000001300003323
#012370:0000000000330000
#013370:13
#0133b0:0023000000000000
#013321:13
#013361:0023000000000000
#013321:00000000000000000000001300002300
#0163b1:13
#016381:00000023000000000000000000000000
#016350:00000013000000000000000000000000
#016320:0000002300000000
#0163b1:0000001300000000
#016371:0000000000230000
#017321:13
#017361:00000023000000000000000000000000
#018371:0013000000000000
#0183b1:0000002300000000
#019361:13
#019321:00000023000000000000000000000000
#0193b0:13
#019370:00000023000000000000000000000000
#020320:13
#020350:00000023000000000000000000000000
#020381:00000013000000000000000000000000
#0203b1:0000002300000000
#020361:0000000000000013
#021321:53
#021361:0023000000000000
#0213b1:0000001300000023
#021371:0000000000330000
#0243b1:00135323
#024391:00000000005300530053005300000000
#024371:0000005300530000
#024360:00001323
#024340:00000000000000000053005300000000
#024320:0000000000530000
#024320:0000000000000013
#025360:23
#025320:0013000000000000
#025360:00230000
#026320:13
#026360:00000023000000000000000000000000
#0263b0:00130000
#026370:00000000000000230000000000000000
#027320:0000001300000000
#027360:0000000000230000
#028320:13532300
#028340:00530053005300530000000000000000
#028360:0053005300000000
#028371:00132300
#028391:00000000005300530000000000000000
#0283b1:0000005300000000
#0283b1:0000000000130000
#028371:00000023
#030321:13
#030361:00230000
#034371:00001323
#0343b1:0000000000330000
#034320:00000013
#034360:0000000000000033
#035320:23
#0353b0:0013
#035380:00000000000000000000002300000000
#036350:00000000000000130000230000000000
#036380:0000000000001323
#037320:13
#037350:00000023000000000000000000000000
#0373b0:0013
#037380:00000000000000000000002300000000
#0383b0:00000000000000130000230000000000
#0413a0:0000143434343434343434340000000000000000000000000000000000000000
#041320:0000002400000000
#0433a0:00001222
#0463b0:0013
#046360:00000023
#047380:00000013000023000000000000000000
#0503b0:13
#050380:0023000000000000
#050360:00001323
#050320:0000000000330000
#0503b1:00000013
#050371:0000000000000033
#0513b1:23
#051321:0013
#051351:00000000000000000000002300000000
#0523b1:00000000000000130000000000000000
#052381:0000000000230000
#052321:00000013
#052351:0000000000000023
#0533b1:13
#053381:00000023000000000000000000000000
#053321:0013
#053351:00000000000000000000002300000000
#054361:00000000000000140000240000000000
#057321:13
#057351:0023000000000000
#057371:00001323
#0573b1:0000000000330000
#057320:00000013
#057360:0000000000000033
#058320:23
#0583b0:0013
#058380:00000000000000000000002300000000
#059320:00000000000000130000000000000000
#059350:0000000000230000
#0593b0:00000013
#059380:0000000000000023
#060320:13
#060350:00000023000000000000000000000000
#0603b0:0013
#060380:00000000000000000000002300000000
#061360:00000000000000140000240000000000
#0653b0:00000013000000000000000000000000
#065380:00000000002300000000000000000000
#065351:00000000001300000000000000000000
#065321:00000000000000230000000000000000
#071321:00000000000000140000000000000000
#071361:00005424
