This file was generated by Ched 2.7.0.0.
#TITLE ""
#ARTIST ""
#DESIGNER ""
#DIFFICULTY 0
#PLAYLEVEL
#SONGID ""
#WAVE ""
#WAVEOFFSET 0
#JACKET ""
#REQUEST "ticks_per_beat 480"
#00002: 4
#BPM01: 135
#00008: 01
#TIL00: ""
#HISPEED 00
#MEASUREHS 00
#00514:14
#00518:0014
#00713:14
#00719:14
#00912:14
#0091a:0014
#00914:00000014
#0101a:14
#01012:0014
#01018:00000014
#0121a:14
#01212:0014
#0381a:0014
#03814:00000014
#03812:00140000
#03818:14
#0341a:14
#03418:0014
#03412:00000014
#03414:00140000
#05012:14
#05014:0014
#0501a:00000014
#05018:00140000
#05010:0041
#06812:0014
#06818:00000014
#0681a:14140000
#0691a:00140000
#06912:0014
#06914:14
#06918:00000014
#00812:0014
#00818:00000014
#0081a:24
#00810:41
#01114:14000014
#01118:0014
#02614:14
#02612:0014
#0261a:00140000
#02618:00000014
#02714:14
#02712:0014
#0271a:00140000
#02912:14
#02914:0014
#0291a:00000014
#02918:00140000
#04012:14
#04018:00140000
#0451a:0014
#04512:00000014
#0461a:14
#04612:00140000
#04712:0014
#0471a:00000014
#04812:14
#0481a:00140000
#05114:14
#05118:00140000
#05112:0014
#0541a:00140000
#05412:14
#05414:0014
#05418:00000014
#06318:14001515
#06319:0000000000150000
#06317:0000000000000015
#06314:00140000
#07014:14
#0701a:00140000
#02518:0014
#02818:14
#0281a:0000001400000000
#0351a:14
#03514:00140000
#0391a:00000014
#03914:0014
#04312:0014
#0431a:14
#0421a:0014
#0421f:0011
#04412:14
#04413:0024
#04419:0024
#0551a:0014
#05512:14000014
#05712:14140000
#05718:00001414
#06118:00140000
#06112:14
#0621a:0014
#06212:00000014
#07114:00000000000000140000000000000000
#0171a:14
#01712:0014
#01718:00000014
#01812:14
#0181a:0014
#01814:00000014
#0161a:0014
#01614:00000014
#01612:24
#01918:1414
#01914:00000014
#01912:00140000
#0201a:14
#02012:0014
#01314:14
#03118:14
#03114:00140000
#0311a:0014
#03217:14
#02412:0000000000140000
#0241a:24
#02414:00240000
#02410:41
#0141a:14
#01418:0014
#02114:14
#0221a:14
#02218:0014
#02314:0014
#03612:14
#03614:0014
#0361a:00000014
#03618:00140000
#03712:14
#03718:00140000
#0521a:14
#05218:0014
#05212:00000014
#05214:00140000
#05318:14
#05314:00140000
#0531a:0014
#05618:14
#05614:00140000
#0561a:0024
#0591a:14140000
#05914:00001414
#06418:15151515
#06419:0015000000150000
#06417:0000001500000015
#06410:41
#06712:00001414
#06714:24
#06718:00240000
#06512:00001414
#0661a:14140000
#06614:0024
#06618:00000024
#03312:2424
#0331a:00240000
#03310:0041
#0491a:0024
#0491f:0021
#04118:0026
#04112:0000000000260000
#04110:0041
#00313:24
#00319:24
#00018:00000034000000000000000000000000
#03352:0014
#0495a:0014
#06359:0000000000250000
#06357:0000000000000025
#06358:00005565
#02858:54
#0285a:0000002400000000
#0565a:0014
#07154:00000000000000640000000000000000
#01252:0054
#0315a:0054
#03257:24
#0325a:0014
#02452:0000000000240000
#02454:00540000
#0145a:64
#01458:0024
#01354:24
#0155a:14
#02052:0054
#02154:24
#0225a:64
#02258:0024
#0235a:14
#05152:0014
#0535a:0014
#05552:14
#05852:0014
#0605a:0014
#06252:14
#06558:15
#06458:55655565
#06459:0025000000250000
#06457:0000002500000025
#000380:14000034000000000000000000000000
#0013a0:24
#001340:00001434
#002340:34
#002320:00000024
#0043a0:14
#004380:0024
#006320:14
#006340:0024
#012320:0014
#013340:34
#013320:0024
#0143a0:14
#014380:0034
#0153a0:24
#020320:0014
#021340:34
#021320:0024
#0223a0:14
#022380:0034
#0233a0:24
#024340:00140000
#024320:0000000000540000
#025340:24
#028380:14000024
#0283a0:0000005400000000
#030320:14
#030340:00003424
#0313a0:0014
#032370:54
#0323a0:0024
#035380:00001424
#037340:00001424
#039380:14240000
#040340:0014
#041340:00240000
#0463a0:0014
#046380:00000034
#047380:34
#0473a0:00240000
#048320:0014
#048340:00000034
#049340:34
#049320:00240000
#058320:1424
#058340:00340000
#0603a0:1424
#060380:00340000
#061320:0014
#061340:00000034
#062320:24
#063380:00001555
#063390:0000000000550000
#063370:0000000000000055
#064380:55555555
#064390:0055000000550000
#064370:0000005500000055
#065380:25
#070340:0014
#071340:00343434343400340000000000000000
#071320:0000000000005424
