This file was generated by Ched 2.7.0.0.
#TITLE ""
#ARTIST ""
#DESIGNER ""
#DIFFICULTY 0
#PLAYLEVEL
#SONGID ""
#WAVE ""
#WAVEOFFSET 0
#JACKET ""
#REQUEST "ticks_per_beat 480"
#00002: 4
#BPM01: 108
#00008: 01
#TIL00: ""
#HISPEED 00
#MEASUREHS 00
#00213:14
#00119:14
#00319:14
#0061a:14
#00714:14
#0081a:14
#00914:14
#01018:14
#01112:14
#01412:14
#01410:41
#01518:14
#01612:14
#01718:14
#01814:14
#0191a:14
#02014:14
#0271a:14
#02812:14
#0291a:14
#03312:0016
#03418:16
#03412:0016
#03518:1616
#03718:0016
#03812:16
#03818:0016
#0401a:14
#0401f:11
#04114:14
#04218:14
#04618:2616
#0461f:21
#04610:0041
#04818:0016
#04812:16
#04912:16
#04918:0016
#05012:2616
#05212:0016
#05218:16
#05512:0016
#05518:16
#05618:1616
#05610:41
#05712:1616
#05712:0016
#05912:16
#05918:0016
#06012:1616
#02614:0014
#03218:26
#03210:41
#03612:26
#03912:2626
#03918:00260000
#03910:41
#05318:2626
#05312:00260000
#06213:24
#05412:26
#05818:26
#06118:2626
#06518:00000026
#02214:0024
#06313:34
#02310:41
#004330:14
#005330:24
#012380:14
#013380:24
#0213a0:14
#0223a0:24
#023380:14
#0243a0:34
#0253a0:34
#026380:24
#030320:14
#031320:24
#032380:1636
#033380:26
#036320:1636
#037320:26
#043320:14
#044340:34
#045320:24
#047380:1626
#051320:1626
#054320:1626
#058380:1626
#062330:14
#063330:34
#064320:36
#065320:3626
