This file was generated by Ched 2.7.0.0.
#TITLE ""
#ARTIST ""
#DESIGNER ""
#DIFFICULTY 0
#PLAYLEVEL
#SONGID ""
#WAVE ""
#WAVEOFFSET 0
#JACKET ""
#REQUEST "ticks_per_beat 480"
#00002: 4
#BPM01: 108
#00008: 01
#TIL00: ""
#HISPEED 00
#MEASUREHS 00
#00115:0000130000000013
#00112:24001313
#0011b:0000000000000013000000000000000000000000130000000000000000001300
#00118:0000000000000000000000000000001300000000000000000000130000000000
#0011a:24
#00212:13000000000013001300000000130000
#00216:0013000000000000
#0021b:0013000000001300
#00217:0013
#00215:00000000000000000000001300000013
#00218:0000000000000013
#00715:1300001300000013
#00718:00000000130000000000000000000013
#0071b:0013000013000000
#00712:0013
#00815:1300001300000013
#0081b:0013000013130000
#00818:00130013
#00812:0013
#00912:13000000000000130000000000000000
#00918:00130000000000000000000013000000
#00915:0013000000000000
#0091b:00131300
#02312:1313
#0231b:0013000000001300
#02318:00000000130000000000000000000013
#02315:0000001300000013
#02310:41
#02215:00000000000000000000001300001300
#02212:13
#02216:0013
#02218:00000000000000000000000013000013
#02217:13
#0221b:0013
#02415:13000000130000000000000000000013
#02412:0013000000001300
#02418:00000000001300000000000000001300
#0271b:1313
#02718:0013000000000013
#02715:00130013
#02712:0000001300130000
#02815:00000013000013000000130000001300
#02818:00001300000000000000000013000013
#0281b:13
#02812:1313
#02915:1300001300001300
#02912:0000130000130000
#02918:00130000000000001300000000001300
#0341b:1313
#03418:0013001300000013
#03415:00000000130000000000000000000013
#03412:00000013
#03416:1313
#03518:13000024
#03512:00001300001300000000000024000000
#03517:00130000
#04212:0013000000000013
#04219:00000000000000000000000000000013
#04218:13000000000000130000000000000000
#04215:0000001313000000
#0421b:00000013
#0431a:0000000000140000
#04312:00000000001300000000000014000000
#04314:13
#0431b:00130000000000001300000000000000
#04316:0013000000000000
#04318:0000000000000013
#04315:00000000000000000000000000000013
#06512:13141400
#06515:0000000013000000000000000000000000000000000000130000000000000000
#06514:0000001400000000
#06518:00130000001400000000001300000000
#0651b:00000013000000000000000000000000
#0651a:00000000000000140000000024000000
#00412:0000001300000000
#00416:13
#0041b:00000013000000001300001313000000
#00414:0000000000000013
#00419:0000000000000013
#00418:0000001300000000
#02112:13
#02116:0013
#02117:13
#0211b:0013
#0131b:00000000000013000000000000000013
#01315:0000000013000013
#01318:00000000000000000000130000130000
#01312:00000013
#01317:00130000
#01316:000000003333000000000000000000000000000000000000
#0401b:0000000000130013
#04015:00000000000013001300000000000013
#04018:13000000000000130000000000000000
#04012:0013000000000000
#0401f:11
#04118:1300001300000013
#04112:0013000000000000
#0411b:00130013
#04115:00000000000000001300000000000013
#06112:13
#06117:13
#06116:0000000013000013
#0611b:0000000013000013
#0301b:13
#03012:13000000001300130000000000000000
#03017:0000001300000000
#03918:0000130000000013
#03915:13000000000000000000000000000013
#03912:00130023
#0391b:00000023
#03910:41
#0521b:1300000013000013
#05218:0013001300000000
#05215:00130000
#05212:0000000000131300
#05216:1313
#06019:0000000000000013
#06015:0013000000000000
#06018:00130000
#06012:0000001300130000
#06017:0000000000130000
#0601b:13001313
#06016:0013
#06014:0000000000000013
#03318:13000000000000130000001300000000
#03315:00001313
#03312:00130000000013000000000000001300
#0331b:00130000
#03316:00130000
#03317:0000000000000013
#00312:00131300
#00318:00000000000000000013000000000000
#00313:0000000000130000
#00319:00000000000000000000001300000000
#00314:00000013
#0031a:00000000000000000000000000130000
#00315:0000000000000013
#0031b:00000000000000000000000000000013
#00612:00000013
#00615:0000000000000013
#00616:13
#00617:0013
#00618:00000000000000000000000000000013
#0321b:2300000000000013
#03215:23000000000000000000000000000013
#03217:0000001300000000
#03212:00131300
#03216:00000013
#03210:41
#0051b:0000001300000000
#00517:13
#00512:13000013000000001300001313000000
#00515:0000001300000000
#00514:0000000000000013
#00519:0000000000000013
#0101b:13000013
#01015:0000000000000013
#01012:0013
#01018:00000000000000000000000000000013
#01115:13130000
#0111b:0013000013001300
#01118:0000001300000013
#01112:00001313
#01215:13000000000000000000000000000013
#01218:00130000000000000000000000001300
#01212:0013000000000000
#01216:00000000000000130000000000000000
#0121b:00131300
#01217:00000013
#01518:1300001300000013
#01515:00000000130000000000000000000013
#01512:0013000013000000
#0151b:0013
#01618:1300001300000013
#01612:0013000013130000
#01615:00130013
#0161b:0013
#0171b:13000000000000130000000000000000
#01715:00130000000000000000000013000000
#01718:0013000000000000
#01712:00131300
#0141b:00000013
#01418:0000000000000013
#01416:0013
#01415:00000000000000000000000000000013
#01410:41
#01812:13000013
#01818:0000000000000013
#0181b:0013
#01815:00000000000000000000000000000013
#01918:13000000130000000000000000000013
#01912:0013000000001300
#01915:0000001300000013
#0191b:0013
#02012:1313
#02018:00000000001300000000130000000000
#02015:0000001300001300
#0201b:00000000000000130000000000001300
#0251b:1300000013000013
#02512:0013000000001300
#02515:00130000
#02518:0000001300000000
#02516:0000000000000013
#02617:13000000000000332300000000000000
#02612:13000000000000332300000000002600
#02616:00130000
#0261b:00130000
#02618:00000000000000000000002600000000
#03115:00130000000000000013000000130000
#03112:00000000000000130000001300000013
#03113:00000000001300000000000000000000
#03114:00000013000000000000000000000000
#0311a:0013000000000000
#03118:0000001300230023
#03119:00230000
#0311b:23002323
#03812:1313
#03815:0013001300000013
#03818:00000000130000000000000000000013
#0381b:0000000000131300
#03817:1313
#03715:13000000000000130000001300000000
#03718:00001313
#0371b:00130000000013000000000000001300
#03712:00130000
#03717:00130000
#03716:0000000000000013
#03612:2300000000000013
#03618:00000000000000000000000000000013
#03616:0000001300000000
#0361b:00131300
#03617:23000013
#04418:13
#0441b:0013
#04412:00131313
#04812:1313
#04815:0013001300000013
#04818:00000000130000000000000000000013
#0481b:00000013
#04817:1313
#04915:13
#0491b:00001300001300000000000000000000
#04916:00130000
#0491a:00000024
#04914:00000024
#04718:00130000000000130000001313000000
#0471b:0000000000000013
#04715:0000131313000000
#04712:13
#04716:0000000000000013
#04615:0000000000000013
#0461b:00000000130000001300000000000013
#04616:0000001300000000
#04617:00000013
#04612:23
#04618:23
#0461f:21
#04610:0041
#05115:00130000000000130000001313000000
#05112:0000000000000013
#05118:0000131313000000
#0511b:13
#05117:0000000000000013
#05018:0000000000000013
#05012:00000000130000001300000000000013
#05017:0000001300000000
#05016:00000013
#0501b:23
#05015:23
#0531b:1323
#05317:00130000
#05312:00230024
#05318:00000024
#05316:0023
#05618:0013000000000000
#05615:00130000
#0561b:0000001300130013
#05616:00000000000000000000000000000013
#05612:13001313
#05617:0013
#05610:41
#0571b:13
#05715:0013000000000000
#05717:00130000
#05712:00000000001300000000000024000000
#05718:00000024
#05515:00130000000000130000001313001300
#05518:00000000130013001300000000000013
#0551b:13
#05418:0000000000000013
#05412:23000000000000000000000013000013
#0541b:0000001300000000
#05416:00131300
#05417:23
#05918:00130000000000130000001313001300
#05915:00000000130013001300000000000013
#05912:13
#05815:0000000000000013
#0581b:23000000000000000000000013000013
#05812:0000001300000000
#05817:00131300
#05816:23
#06217:13
#0621b:0000001300000000
#06212:13
#06216:0000001300000000
#06312:0000001300000000
#06317:0000001300000000
#0631b:23
#06316:23
#0641a:0000001400000000
#06415:0000001400000000
#06417:24
#06412:24
#04518:00130000000000000013000000130000
#0451b:00000000000000130000001300000013
#0451a:00000000001300000000000000000000
#04519:00000013000000000000000000000000
#04513:0013000000000000
#04515:0000001300230023
#04514:00230000
#04512:23002323
#00019:0000000000000023
#00014:0000000000000023
#00452:0000002300000000
#00456:53
#02252:63
#02256:0013
#02257:63
#0225b:0013
#02152:63
#02156:0023
#02157:63
#0215b:0023
#0245b:0013
#02458:00000000005300000000000000000000
#02958:00230000000000000000000000000000
#02652:5300000013000016
#02658:00000000000000000000001600000000
#02657:0013
#02656:00530000
#0265b:00530000
#06152:53
#06157:53
#06156:0023
#0615b:0023
#0655a:00000014
#0305b:53
#03052:00000000000000530000000000000000
#03556:0013
#0355b:0013
#03552:00000000005300000000000000000000
#03557:00530000
#00952:00000000000000230000000000000000
#00955:0053000000000000
#0025b:0053000000000000
#00257:0053
#0055b:0000002300000000
#00557:63
#01252:0053000000000000
#01256:00000000000000230000000000000000
#0175b:00000000000000230000000000000000
#01758:0063000000000000
#0195b:0053
#02052:53
#02352:0053
#0255b:0063
#0325b:53
#03257:0000002300000000
#0345b:0053
#03656:0000002300000000
#03652:63
#03852:0063
#03955:5313
#03952:00530000
#03958:00530000
#0395b:0013
#04058:53
#04055:0053
#04155:0053
#04258:53
#04255:0053
#04356:0053000000000000
#04352:00000000002300000000000000000000
#04458:63
#0445b:0023
#04656:0000002300000000
#04652:63
#04852:0063
#04956:00630000
#0495b:00000000006300000000000000000000
#04957:0013
#04952:0013
#04758:00530000000000000000000000000000
#04755:0053
#05155:00630000000000000000000000000000
#05158:0063
#05057:0000002300000000
#0505b:53
#0525b:0053
#05252:00000053
#0535b:5313
#05357:00530000
#05356:0013
#05555:00630000000000000000000000000000
#05558:0063
#0545b:0000002300000000
#05457:53
#05657:0053
#0565b:0000000000230000
#05757:00530000
#05752:00000000005300000000000000000000
#05756:0013
#0575b:0013
#05958:00530000000000000000000000000000
#05955:0053
#05852:0000002300000000
#05856:63
#06056:0063
#06052:0000000000230000
#06257:53
#0625b:0000002300000000
#06252:53
#06256:0000002300000000
#06352:0000002300000000
#06357:0000002300000000
#0635b:53
#06356:53
#06457:54
#0645a:0000002400000000
#06455:0000002400000000
#06452:54
#0015a:14
#00152:14
#0023b0:0013000000000000
#002370:0000002300000000
#002370:0013
#0023b0:00000000000000000000002300000000
#0033b0:1323
#0033a0:00330000000000330000000000000000
#003390:0033003300000000
#003380:00000033003300000000000000000000
#003370:00330000
#004360:13000023
#004320:0000005300000000
#005370:13000023
#0053b0:0000005300000000
#0063b0:13230000
#006321:00132300
#009351:0013000000002300
#009321:00000000000000530000000000000000
#010351:13230000
#010380:00132300
#012320:0013000000002300
#012360:00000000000000530000000000000000
#0133b0:1323000000000000
#013361:000000133333000000000000000000000000000000000000
#013321:00230000
#014321:13230000
#0143b0:00132300
#017380:0013000000002300
#0173b0:00000000000000530000000000000000
#018380:13230000
#018351:00132300
#0193b1:0013
#019371:00000023
#020321:13
#020351:00000000002300000000000000000000
#021321:13
#021361:0053
#022321:33
#022361:0000002300000000
#021370:13
#0213b0:0053
#022370:33
#0223b0:0000002300000000
#023320:0013
#023360:00000023
#024380:00000000001300000000000000000000
#0243b0:0023
#0253b0:0013
#025370:00000023
#026320:13000000000000332300000000000000
#026360:00330000
#0263b1:00130000
#026371:00000000000000332300000000000000
#028381:00132300
#0283b1:0000003300000000
#029381:00130000000000000000000000000000
#0293b1:00230000
#0303b1:13
#030371:00000000002300000000000000000000
#030321:00000000000000130000000000000000
#031361:23
#0323b1:13000023
#032371:0000005300000000
#0343b1:0013
#034371:00000023
#035371:00130000
#0353b1:0023
#035320:00000000001300000000000000000000
#035360:0023
#036320:13000023
#036360:0000005300000000
#038320:0013
#038360:00000023
#039350:1323
#039320:00330000
#039381:00130000
#0393b1:0023
#040381:13
#0403b1:0023000000000000
#040351:0013
#040321:0000000000230000
#041351:0013
#041321:00000023
#042381:13
#0423b1:0023000000000000
#042351:0013
#042321:00000023
#043361:0013000023000000
#043321:00000000005300000000000000000000
#044381:13
#0443b1:0053
#045381:23
#046321:13000023
#046361:0000005300000000
#047381:00130000000000000000000000000000
#0473b1:00230000
#047351:0013
#047321:00000023
#048321:0013
#048361:00000023
#049361:00130000
#049321:0023
#0493b0:00000000001300000000000000000000
#049370:0023
#0503b0:13000023
#050370:0000005300000000
#051350:00130000000000000000000000000000
#051320:00230000
#051380:0013
#0513b0:00000023
#0523b0:0013
#052370:00000023
#052321:00000013
#053361:23
#0533b0:1323
#053370:00330000
#054370:13000023
#0543b0:0000005300000000
#055350:00130000000000000000000000000000
#055320:00230000
#055380:0013
#0553b0:00000023
#056370:00001323
#0563b0:0000000000530000
#057370:00130000
#0573b0:0023
#057321:00000000001300000000000000000000
#057361:0023
#058361:13000023
#058321:0000005300000000
#059381:00130000000000000000000000000000
#0593b1:00230000
#059351:0013
#059321:00000023
#060361:00001323
#060321:0000000000530000
#061321:13
#061361:00230000
#061370:13
#0613b0:00230000
#0613b0:0013
#061370:00000023
#061361:0013
#061321:00000023
#062371:13000023
#0623b1:0000005300000000
#062320:13000023
#062360:0000005300000000
#063360:13000023
#063320:0000005300000000
#0633b1:13000023
#063371:0000005300000000
#064371:14000024
#0643a1:0000005400000000
#064320:14000024
#064350:0000005400000000
