This file was generated by Ched 2.7.0.0.
#TITLE ""
#ARTIST ""
#DESIGNER ""
#DIFFICULTY 0
#PLAYLEVEL
#SONGID ""
#WAVE ""
#WAVEOFFSET 0
#JACKET ""
#REQUEST "ticks_per_beat 480"
#00002: 4
#BPM01: 108
#00008: 01
#TIL00: ""
#HISPEED 00
#MEASUREHS 00
#00118:0000130000130000
#00115:0013
#00113:24
#00112:00000000000000000000000000333333
#00715:0000001300000013
#00718:13000000130000000000000000000013
#00712:0013000000000000
#0071b:0013
#00815:13130013
#0081b:0013000000130000
#00818:0000001300000013
#00812:0013
#00915:1313000000000000
#00918:00130000000000000000000000000000
#02318:13000000130000000000000000000013
#02312:0013000000000000
#02315:0000001300000013
#0231b:0013
#02310:41
#02218:0000000000000013
#0221a:14
#02215:00000000000000000000000000000013
#02212:0014
#02415:13000000130000000000000000000013
#0241b:0013000000000000
#02418:0000000000000013
#02412:00000000003300000000000000000000
#02712:1313
#02718:0013000000000013
#02715:00130013
#0271b:0000001300130000
#02815:00000013000000000000130000001300
#02818:00001300000033000000000013000013
#02812:13
#02915:13000013
#02912:0000000000130000
#02918:00130000000000000000000000001300
#0341b:1313
#03415:0013001300000013
#03418:00000000130000000000000000000013
#03515:13130023
#0351b:0013000000002300
#03512:00000000003300000000000000000000
#04318:0000000000130013
#04315:00000000000000000000000013000013
#04312:33330000000000000000000000000000
#0211a:14
#02116:0014
#0131b:0000001300000000
#01315:000000003333000000000000130000000000000000000000
#01318:0000000000130000
#01312:00000000000000000000000000333333
#04015:0000001313000013
#04018:13000000000000130000000000000013
#04012:0013000000000000
#0401b:0000000000130000
#0401f:11
#04115:13000000130000001300000000000013
#0411b:0013000000000000
#04118:0000001300000013
#03918:1300000000000013
#03915:00000000000000000000000000000013
#0391b:00130000
#03913:00000024
#03910:41
#00615:0000000000000013
#01015:0000000000000013
#01018:00000000000000000000000000000013
#01115:1300130000000013
#0111b:0013000000001300
#01118:0000001300000000
#01112:0013
#01218:13000000000000130000000000000000
#01215:00130000000000000000000000000000
#0121b:0013000000000000
#01212:00000000000000000000000000000033
#02012:13
#02015:0000000000130013
#02018:00000013
#0201b:00000000000033330000000000000000
#02518:13130000
#02512:0013000000000000
#02515:0000001300000013
#0251b:0013
#0261b:13000000000000332300000000000000
#02618:00130000
#02613:00000000000000000000002400000000
#02619:0000000000000024
#03216:0000001400000000
#0321a:24
#03212:00000000000000000000000000000033
#03210:41
#04218:1300001313000000
#04215:00000000000000130000000000000000
#04212:00001300000000000000000000000033
#04418:13
#0441b:0013
#0021b:0013000000000000
#00212:00000000000000000000000033333333
#0041b:13
#00418:0000001300000000
#00512:13
#00515:0000001300000000
#01518:0000001300000013
#01515:13000000130000000000000000000013
#0151b:0013000000000000
#01512:0013
#01618:13130013
#01612:0013000000130000
#01615:0000001300000013
#0161b:0013
#01718:1313000000000000
#01715:00130000000000000000000000000000
#01418:0000000000000013
#01410:41
#01818:0000000000000013
#01815:00000000000000000000000000000013
#01918:13000000130000000000000000000013
#01912:0013000000000000
#01915:0000001300000013
#0191b:0013
#0301b:13
#03018:00000000000000130000000000000000
#03115:0013000000230000
#03112:0000001300000023
#03118:00230023
#0311b:0023
#03818:1313
#03812:0013000000130000
#0381b:00130013
#03815:0000001300000013
#03616:0000001400000000
#03612:24
#0361b:00000000000000000000000000000033
#03715:0000000000000013
#03718:00000000000000330000000000000000
#0371b:33
#04515:0013000000230000
#04512:0000001300000023
#0451b:00230023
#04518:0023
#0481b:1313
#04815:0013001300000013
#04818:00000000130000000000000000000013
#04812:13
#04915:13130023
#0491b:0013000000002300
#04912:00000000003300000000000000000000
#04616:0000001400000000
#0461a:24
#0461f:21
#04613:00000000000000000000000000000033
#04619:00000000000000000000000000000033
#04610:0041
#05218:1313
#05212:0013000000130000
#0521b:00130013
#05215:0000001300000013
#05016:0000001400000000
#05012:24
#0501a:00000000000000000000000000000033
#05014:00000000000000000000000000000033
#05115:0000000000000013
#05118:00000000000000330000000000000000
#05119:33
#05112:00000000000000330000000000000000
#05113:33
#05318:13002323
#0531b:00130000
#05312:00000023
#0561b:0013000000000000
#05615:00000000130000001300000000000013
#05618:0000001300000013
#05612:13
#05610:41
#05718:13000000003300000000000000000000
#05712:0013000000002300
#0571b:00130023
#05416:0000001400000000
#0541a:24
#05418:00000000000000000000000000000033
#05412:00000000000000000000000000000033
#05518:0000130000000013
#05512:00130000
#05515:00000000000000330000000000000000
#0551b:00000000000000330000000000000000
#05816:0000001400000000
#05812:24
#05815:00000000000000000000000000000033
#0581b:00000000000000000000000000000033
#05915:0000130000000013
#0591b:00130000
#05918:00000000000000330000000000000000
#05912:00000000000000330000000000000000
#06012:0013000000130000
#06018:00130013
#06015:0000001300000013
#0601b:1313
#0611b:13
#06112:0013
#06118:0000000000000013
#06215:13
#06212:0000001300000000
#0631b:0000001300000000
#06318:23
#06418:0000001400000000
#06412:0000001400000000
#0641a:24
#06414:24
#00019:0000000000000024
#06518:00333333000000000000000024000000
#06515:00000000003333330000000000000000
#00318:00333333333333330000000000000000
#00315:00000000000000000033333333333333
#03315:00000000000000330000000000000000
#03312:33
#04715:00000000000000330000000000000000
#04714:33
#0471b:00000000000000330000000000000000
#0471a:33
#0225a:54
#02252:0014
#0215a:54
#02156:0024
#02958:00230000000000000000000000000000
#02659:0000000000000014
#02653:00000000000000000000001400000000
#0265b:6313
#02658:00630000
#06558:00000014
#03552:0013
#03555:00630000
#00955:0053000000000000
#0125b:0063000000000000
#01258:00000000000000230000000000000000
#02052:53
#0255b:0063
#0325a:54
#03256:0000002400000000
#0345b:0053
#04155:0053
#04258:0063
#04458:63
#0445b:0023
#0645a:54
#06458:0000002400000000
#06452:0000002400000000
#06454:54
#00153:14
#0025b:0053000000000000
#0045b:53
#00458:0000002300000000
#00552:63
#00555:0000002300000000
#01758:0063000000000000
#0195b:0053
#02452:0013
#02455:00530000
#0305b:53
#03058:00000000000000530000000000000000
#03656:0000002400000000
#03652:64
#03958:5313
#0395b:00530000
#04656:0000002400000000
#0465a:54
#0485b:0053
#04955:00630000
#04952:0013
#05056:0000002400000000
#05052:64
#05358:5313
#0535b:00530000
#05456:0000002400000000
#0545a:54
#05655:0053
#0575b:00630000
#05758:0013
#05856:0000002400000000
#05852:64
#0615b:53
#06152:0063
#06255:53
#06252:0000002300000000
#0635b:0000002300000000
#06358:53
#001320:00000000000000000000000013333333
#002350:23
#0023b0:0013000000000000
#002380:0000002300000000
#002320:00000000000000001300000033333333
#002350:00000000000000000000003300000000
#003320:23
#0033b1:13
#003381:00333333333333332300000000000000
#003320:0013
#003350:00000000000000000033333333333333
#004350:23
#0043b1:13000023
#004381:0000005300000000
#005321:13000023
#005351:0000005300000000
#0063b1:1323
#006381:00330000
#009351:0013000000000000
#009321:00000023
#010381:1323
#0103b1:00330000
#0123b1:0013000000002300
#012381:00000000000000530000000000000000
#012321:00000000000000000000000000001333
#013351:330000333333000000000000000000000000000000000000
#013321:00230000
#013351:00000013
#013321:00000000000000000000000000333333
#014321:3323
#014351:00330000
#017381:0013000000000000
#0173b1:00000023
#018351:1323
#018321:00330000
#0193b1:0013
#019381:00000023
#020321:13
#020351:0023000000000000
#0203b1:00000000001333330000000000000000
#020381:0023
#0213a1:14
#021361:0054
#0223a1:34
#022361:0000002400000000
#024351:00130000
#024321:00000000003300002300000000000000
#0253b1:0013
#025381:00000023
#0263b1:13000000000000332300000000000000
#026381:00330000
#028381:0000133300000000
#0283b1:0023
#029381:00130000000000000000000000000000
#0293b1:00230000
#0303b1:13
#030381:00000000003333330000000000000000
#0313b1:23
#0323a1:14000024
#032361:0000005400000000
#032321:00000000000000000000000000001333
#033321:3323
#033351:00330000000033330000000000000000
#0343b1:0013
#034381:00000023
#035351:00130000
#035321:00000000003300002300000000000000
#036321:14000024
#036361:0000005400000000
#0363b1:00000000000000000000000000001333
#0373b1:3323
#037381:00330000000033330000000000000000
#039381:1323
#0393b1:00330000
#041351:0013
#041321:00000023
#042381:0013
#0423b1:00000023
#042321:00000000000000000000000000001333
#043321:33330000000000002300000000000000
#043351:0033000000000000
#044381:13
#0443b1:0053
#045381:23
#0463a1:14000024
#046361:0000005400000000
#046321:0000000000000013
#046331:00000000000000000000000000000033
#047341:33
#047351:00230000000000000000000000000000
#046380:0000000000000013
#046390:00000000000000000000000000000033
#0473a0:33
#0473b0:00230000000000000000000000000000
#047350:00000000000013330000000000000000
#047320:0023
#0473b1:00000000000013330000000000000000
#047381:0023
#0483b1:0013
#048381:00000023
#049351:00130000
#049321:00000000003300002300000000000000
#050321:14000024
#050361:0000005400000000
#0503b1:0000000000000013
#0503a1:00000000000000000000000000000033
#051391:33
#051381:00230000000000000000000000000000
#050350:0000000000000013
#050340:00000000000000000000000000000033
#051330:33
#051320:00230000000000000000000000000000
#051380:00000000000013330000000000000000
#0513b0:0023
#051321:00000000000013330000000000000000
#051351:0023
#053381:1323
#0533b1:00330000
#0543a1:14000024
#054361:0000005400000000
#054321:00000000000000000000000000001333
#055351:23
#054380:00000000000000000000000000001333
#0553b0:23
#055350:00000000000013330000000000000000
#055320:0023
#0553b1:00000000000013330000000000000000
#055381:0023
#056351:0013
#056321:00000023
#0573b1:00130000
#057381:00000000003300002300000000000000
#058321:14000024
#058361:0000005400000000
#0583b1:00000000000000000000000000001333
#059381:23
#058350:00000000000000000000000000001333
#059320:23
#059380:00000000000013330000000000000000
#0593b0:0023
#059321:00000000000013330000000000000000
#059351:0023
#0613b1:13
#061381:00230000
#061321:0013
#061351:00000023
#062351:13000023
#062321:0000005300000000
#063381:13000023
#0633b1:0000005300000000
#0643a1:14000024
#064381:0000005400000000
#064340:14000024
#064320:0000005400000000
#0653b0:13
#065380:00333333230000000000000000000000
#065321:00130000
#065351:00000000003333332300000000000000
