This file was generated by Ched 2.7.0.0.
#TITLE ""
#ARTIST ""
#DESIGNER ""
#DIFFICULTY 0
#PLAYLEVEL
#SONGID ""
#WAVE ""
#WAVEOFFSET 0
#JACKET ""
#REQUEST "ticks_per_beat 480"
#00002: 4
#BPM01: 108
#00008: 01
#TIL00: ""
#HISPEED 00
#MEASUREHS 00
#00116:0000000000000000140000000000001400000000000000000000000000000000
#00112:26000000000000001400130000000013
#0011b:0000000000131300
#0011a:0000000000000014000000000000000000000000000000000000000000000000
#00118:26000000000000000000000000130000
#00115:0000000000000013
#00218:13000000000000000000000000130000
#0021b:0000001313001300
#00217:0000000013000000000000000000000000000013000000000000000000000000
#00212:00001300000000001300000000000013
#00216:00000000000000000000001300000000
#00215:0000000000000013
#00712:0000001613000013
#00715:13000000160000000000131613000013
#00718:0016000000000000
#0071b:0013
#00818:13
#00812:001c1916131c1916
#0081b:0013
#00912:1313
#00915:00130000130000000000000013000000
#00918:0013000000000000
#0091b:00000000000000130000000000000000
#02312:1400001213000013
#0231c:0012000000000000
#02319:00130000
#02316:0014001400000000
#02317:00000000000000000000000000000013
#0231b:00001313
#02318:000000000000000000000000000000130013000000000000
#02315:000013
#02314:00130000
#02310:41
#02214:0000000000000014
#02216:14000000000000001400001400000014
#0221a:0014
#02218:00000014
#02212:14
#02412:1313000013001300
#02415:000000000000000000000000000000130013000000130000
#02418:000000000000000000000000000000000000000000000000000000000000000013000000000000000000000000130000
#02416:00130000
#0241b:00001300001300000000000000000000
#0271b:1300000013000013
#02718:0013000000001300
#02715:0000130000130000
#02712:0000001300000000
#02716:00000000000000140000000000000014
#02812:1300130000130000
#02818:00001300000000130000000013000013
#0281b:1300000013000013
#02815:00000013000013000000001300000000
#02912:0000160000131619
#02918:00130000000000001600000000000000
#02915:1300001600000000
#0341b:1300001300130000
#03417:0013130013001300
#03416:1400001300130000
#03418:0000000000000013
#03415:00000000000000000000000000000013
#03412:00000014000000001300000000000000
#03512:13001400001400000000000024000000
#03516:00000014140000000000140000001400
#03518:00000000000000000000000000140000
#0351a:00000024
#04212:0013000000000014
#04216:00000000000000000000000000000014
#04218:13000000000000130000000000000000
#0421b:0000001300131300
#04215:00161300
#04312:00000000001400000000140000000000
#0431a:0014000014001400
#04314:14
#04318:00140000000000000000000000001300
#04316:0014000000001300
#04315:00000000000000000000000000000013
#04317:0000000000130000
#06512:13141424
#06518:00001300000000000000001300000000
#0651a:0000001400002400
#06515:0000130000000000000000000000000000000000000000130000000000000000
#0651b:00000013000000000000000000000000
#06516:00000000001400140000000000000000
#00412:0000001300000000
#00416:13
#00415:0000000000000013
#00418:0000000000000013
#0041b:00333300000013000033330013000000
#01312:000000000016000000130000130000000000130000000000
#01317:0013
#0131b:00000000000013000000130000130000
#01318:000000001600000000000000000000000000000000130000
#01315:00001600160000000000000000000013
#01316:0000000000130000
#0401b:0000001300130013
#04018:13000000000000130000000000000000
#04012:0013000000000000
#04015:00000000160000001300000016000016
#0401f:11
#04112:1313000013000013
#0411b:0000131300001300
#04115:00000016000000160000000000000013
#06112:13
#06117:1200000012000013
#0611c:0000000000000012
#0611b:0013
#03912:1400000016002313
#03915:0000000000000000000000000000000000000000000000130000000000001300
#03914:00140000140000000000000000000000
#03916:00001400001400000000000000000000
#03918:00000014000014000000001300000000
#0391a:00000000000000140000000000000000
#0391b:00000023
#03910:41
#03318:13000013000000000000001300000000
#03315:0013000000001300
#03312:00130000000013001300000000001300
#0331b:0000130000130000
#03316:00000000130000140000000000001400
#00312:00000013000000131300000013000000
#00315:00130000001300000013000000130000
#00318:0013001300130013
#0031b:13000000130000000000001300000013
#00612:00130013
#0061b:1300000000130013
#00616:1300001300000000
#00617:0013000013000000
#00618:00000000000000000000000000000013
#03012:13000000001300000000140014000000
#03018:0000131300000000
#0301b:1313000013000000
#03015:00000013000000130000000000000000
#03016:00000000000000000000001400001400
#0301a:00000000000000000000000000140014
#03218:0013000000130013
#03215:00000000000000000000000000000013
#03217:0000001300000000
#0321b:2300131313001300
#03212:23
#03210:41
#00515:0000000000000013
#00518:0000000000000013
#0051b:0000001300000000
#00517:13
#00512:00333300000013000033330013000000
#0101b:0013000000001300
#01012:0000001300000013
#01018:1300130000130000
#01015:13000000000000001300000000000013
#01017:0013000000000000
#01016:0000001300000000
#01118:1300001300000000
#0111b:0013000013001300
#01115:0000160000000016
#01112:0013000013000000
#01116:0000000000130000
#01218:13000000000000000000000000000013
#01215:00130000000000000000000000001300
#01212:0013000000000000
#01216:00000000000000130000000000000000
#0121b:00131300
#01217:00000013
#0251b:13001313
#02515:000000130000130000000000130000001300000000000000
#02518:000000000000000000130000000000130013000000000000
#02512:0000000000000013
#02517:0000000000000013
#02616:13000014000000000000002400002414
#0261b:1300000023000023
#02612:00001400000000002300002300000000
#0261a:00140000
#02615:0000001300000000
#02618:00000000000000130000000000000000
#03115:00001300000013000013000000130000
#0311b:00000013000000130000001300000013
#03118:00130000001300000000230000002300
#03112:23232323
#03815:0000000000000013
#03818:00000000000000000000000000000013
#03812:1300001300130000
#03816:1413130013001300
#03817:0000001300130000
#0381b:0013
#0381a:00000014000000000000000000000000
#04412:16141214
#0441b:13
#04417:0013
#05618:00001300000000130000000013000000
#05615:00000016130000001300000000000016
#0561b:0000001300130013
#05612:1300000000130000
#05610:41
#0571b:13
#05715:0013000000000000
#05718:00000016000000000000000000000000
#05712:0000140000142400
#05716:00000000000000000000000000141400
#0571a:00000024
#05512:00000000000000001300001300000000
#05515:00160000001316131600000013000013
#05518:1300130000000013
#0551b:00130000000000000000000000000000
#05418:0000000000000013
#05415:00000000130000001300000000000016
#0541a:0000001400000000
#05412:24000013
#05414:0012000000120000
#05416:2400001200000000
#04515:00000000000013000013000000130000
#0451b:00000013000000000000001300000013
#04518:00160000001600130000260000002600
#04512:2613260026002600
#0151b:0000000013000013
#01518:13000000000016000000130013000013
#01512:0016000013000000
#01515:00000000160000000000001600000000
#01615:13190019
#01612:001c0000131c0000
#01618:0000001600000016
#0161b:0013
#0171b:1313
#01718:00130000130000000000000013000000
#01715:0013000000000000
#01712:00000000000000130000000000000000
#0141b:00130013
#01412:1300000000130013
#01417:1300001300000000
#01416:0013000013000000
#01415:00000000000000000000000000000013
#01410:41
#01812:0013000000001300
#0181b:0000001300000013
#01815:1300130000130000
#01818:13000000000000001300000000000013
#01816:0013000000000000
#01817:0000001300000000
#01915:13000000160013000000000000000016
#01912:0013000013001316
#0191b:0013000013000000
#01917:0000000000130000
#02018:16000013000013001300000000001300
#02015:00001300130000130000130013000000
#0201b:00000000001300000000000013000000
#02012:0013
#0211a:1414
#02112:14
#03715:13000013000000000000001300000000
#03718:0013000000001300
#0371b:00130000000013001300000000001300
#03712:0000130000130000
#03717:00130000
#03716:00000000000000140000000000001400
#03615:0013000000130013
#03618:00000000000000000000000000000013
#03616:0000001300000000
#03612:2300131313001300
#0361b:23
#04812:1300001300130000
#04816:14001318000014000000130000000000
#0481b:00130000
#04815:00000000000000001300000013001316
#04818:0016
#0491b:13
#0491a:00001400001400000000000024000000
#04916:00000014140000000000140000001400
#04914:00000000000000000000000000140000
#04912:00000024
#04712:00000000160000000000131600000000
#04718:0016000000001300
#0471b:00130000000000000000000000001300
#04715:13000013000000000000000000000000
#0471a:0000001414000000
#04716:00000000000000140000000000001400
#04615:00001300000000000000130000001316
#04616:0000001300000000
#04612:2300131313001300
#0461b:23
#0461f:21
#04610:0041
#0521b:1300001300130000
#05217:0013000000130000
#05212:00000018130000001600000000001300
#05216:1400001400000013
#05218:00001316
#05118:13000013160000000000001600000000
#05115:00000013
#05112:00131600000014001400000000001300
#05116:00000000000000140000000000001400
#0511b:0000000000130000
#05018:0013000000130013
#05015:00000000000000000000000000000016
#05017:0000001300000000
#0501b:2300131313001300
#05012:23
#05315:00130000001300000000000000000000
#05318:00001300000013000000000000140000
#0531b:00000013000000130000000000000000
#05316:0000000000000014
#05314:00000000000000000000000000000014
#0531a:00000024
#05312:23232c00
#06015:00001316000000130000000013000000
#06018:00131300
#06012:0000001300130013
#0601b:1300000000130013
#0591b:00000000000000001300001300000000
#05918:00000000001300130000000013000013
#05915:13160000130016001600000000001300
#05912:00130000000000000000000000000000
#05815:00000000000000000000000000001316
#05812:0000001400000000
#05818:0000131213000000
#0581b:00000013
#0581a:2412000000120000
#05816:24
#06212:13
#06217:0000001300000000
#06216:1300000000001314
#06219:0012000000120000
#0621b:00131300
#0621c:0000001200000000
#06316:0000001300000014
#06317:13000013
#06315:0012000000120000
#06312:0000131213000000
#0631b:23
#06413:00140014001400140014001400000000
#06414:0014001400140000
#06412:24141400
#06418:0012001200120000
#0641a:24141414
#06416:0000000000000014
#00019:0000000000000023
#00014:0000000000000023
#00452:0000002300000000
#00456:53
#02457:0013
#0245b:00000000005300000000000000000000
#02452:0013
#02958:00230000000000000000000000000000
#0265b:0000000013000013
#02652:00000000000000001300001300000000
#06152:53
#06157:5222
#0615b:0023
#02256:5414
#0225a:0014
#02252:54
#03556:00541400
#0355a:0014
#03552:00000000005400000000000000000000
#00252:0063000000000000
#0025b:0053
#00257:0000000000000000000000000000000000000023000000000000000000000000
#01252:0053000000000000
#01256:00000000000000230000000000000000
#03252:63
#03257:0000002300000000
#03452:0063
#03456:0000000000230000
#04058:53
#04055:0053
#04152:0053
#04258:53
#04255:0053
#04356:0054000000000000
#04352:00000000002400000000000000000000
#05555:00660000000000006600000000000000
#0545a:0000002400000000
#05456:54
#05655:0063
#05652:0000000000230000
#00158:46
#00152:36
#0055b:0000002300000000
#00557:63
#00657:0023000000000000
#00656:0000002300000000
#00652:00530000
#0065b:53
#00958:0053000000000000
#0095b:00000000000000230000000000000000
#01055:53
#01058:00530000
#01057:0023000000000000
#01056:0000002300000000
#01152:0053
#01156:0000000000230000
#0195b:0063
#01957:0000000000230000
#01452:63
#01456:0023000000000000
#01457:0000002300000000
#0145b:00630000
#01755:0063000000000000
#01752:00000000000000230000000000000000
#01858:63
#01856:0023000000000000
#01855:00630000
#01857:0000002300000000
#02058:0053
#02055:00000053
#02152:54
#0215a:0024
#0255b:53
#02555:00530000
#03656:0000002300000000
#0365b:53
#0385b:0053
#03857:0000000000230000
#03952:0016
#0445b:53
#04457:0023
#04656:0000002300000000
#0465b:53
#04858:0056
#04856:0000000000230000
#04956:00641400
#0495a:00000000006400000000000000000000
#04952:0014
#05057:0000002300000000
#05052:63
#05252:0066
#05257:0000000000230000
#05258:00000056
#05256:0000000000000023
#05352:001c
#05752:00540000
#05756:0014
#0575a:0014
#05955:00560000000000005600000000000000
#05852:0000002400000000
#05856:64
#06058:0053
#0605b:0000000000230000
#06252:53
#06257:0000002300000000
#06356:0000002300000000
#0635b:53
#06552:00000034
#0655a:00000044
#06453:00540054005400540054005400000000
#06454:0024002400240000
#06452:24242400
#002320:0013000000000000
#002360:0000002300000000
#0023b0:00000000000000001300002300000000
#002370:0000000000000000000000000000000000000053000000000000000000000000
#004360:13000023
#004320:0000005300000000
#0043b1:13333300000000000000000000000000
#004371:00000023000000000000000000000000
#004371:0013
#0043b1:00000000000000000033332300000000
#005370:13000023
#0053b0:0000005300000000
#005321:13333300000000000000000000000000
#005361:00000023000000000000000000000000
#005361:0013
#005321:00000000000000000033332300000000
#0063b0:13230000
#006370:0053000000000000
#006321:00132300
#006361:0000005300000000
#009381:0013000000002300
#0093b1:00000000000000530000000000000000
#010351:13230000
#010371:0053000000000000
#010380:00132300
#010360:0000005300000000
#011320:00001323
#011360:0000000000530000
#012320:0013000000002300
#012360:00000000000000530000000000000000
#0133b0:1323000000000000
#014320:13230000
#014360:0053000000000000
#0143b1:00132300
#014371:0000005300000000
#017351:0013000000002300
#017321:00000000000000530000000000000000
#018381:13230000
#018361:0053000000000000
#018350:00132300
#018370:0000005300000000
#0193b0:00001323
#019370:0000000000530000
#020380:0013
#0203b0:0000000000230000
#020350:00000013
#020320:0000000000000023
#021320:14
#0213a0:0054
#022320:34
#022360:0000002400000000
#022361:14
#0223a1:0000002400000000
#0243b1:00000000001300000000000000000000
#024371:0023
#0253b1:13
#025381:0023000000000000
#025351:00130000
#025321:0000002300000000
#029381:00130000000000000000000000000000
#0293b1:00230000
#032321:13000023
#032371:0000005300000000
#034321:00001323
#034361:0000000000530000
#035361:00140000
#0353a1:0024
#035320:00000000001400000000000000000000
#035360:0024
#0363b0:13000023
#036360:0000005300000000
#0383b0:00001323
#038370:0000000000530000
#040380:13
#0403b0:0023000000000000
#040350:0013
#040320:0000000000230000
#041320:0013
#041370:00000023
#042380:13
#0423b0:0023000000000000
#042350:0013
#042320:00000023
#043360:0014000024000000
#043320:00000000005400000000000000000000
#0443b0:13
#044370:0053
#0453b0:23
#0463b0:13000023
#046360:0000005300000000
#048380:00001626
#048360:0000000000530000
#049360:00140000
#049320:0024
#0493a1:00000000001400000000000000000000
#049361:0024
#050321:13000023
#050371:0000005300000000
#052321:00001626
#052371:0000000000530000
#052380:00000016
#052360:0000000000000053
#053380:26
#054360:14000024
#0543a0:0000005400000000
#055350:00160000000000000000000000000000
#055320:00260000
#055350:0016
#055380:00000026
#056350:00001323
#056320:0000000000530000
#057320:00140000
#057360:0024
#0573a1:00000000001400002400000000000000
#058361:14000024
#058321:0000005400000000
#059351:00160000000000000000000000000000
#059381:00260000
#059351:0016
#059321:00000026
#060381:00001323
#0603b1:0000000000530000
#061321:13
#061371:00230000
#061370:12
#0613c0:00220000
#0613b0:0013
#061360:00000023
#061371:0012
#061321:00000022
#062321:13000023
#062371:0000005300000000
#0633b1:13000023
#063361:0000005300000000
#064321:14545424
#064331:00540054005400540054005400000000
#064341:0054005400540000
