This file was generated by Ched 2.7.0.0.
#TITLE ""
#ARTIST ""
#DESIGNER ""
#DIFFICULTY 0
#PLAYLEVEL
#SONGID ""
#WAVE ""
#WAVEOFFSET 0
#JACKET ""
#REQUEST "ticks_per_beat 480"
#00002: 4
#BPM01: 108
#00008: 01
#TIL00: ""
#HISPEED 00
#MEASUREHS 00
#0011a:1414
#00312:1414
#0061a:1414
#00614:00140000
#00712:1414
#00718:00140000
#0081a:1414
#00814:00140014
#01012:14
#01018:00140000
#01014:0014
#0111a:14
#01114:00140000
#01118:0014
#02312:1414
#0231a:00140000
#02310:41
#02612:00140000
#0261a:14
#02613:0024
#02619:0024
#0281a:14
#02814:00140000
#02818:0014
#02812:00000014
#03314:0014
#0331a:0014
#03312:14
#03514:1414
#03518:00140000
#0351a:00000014
#06518:00000000140000140000000000000000
#06514:0000001414000000
#06512:14000024
#0651a:14000024
#00214:14
#00218:0014
#01412:1414
#01418:00140000
#01410:41
#0151a:1414
#01514:00140000
#01612:1414
#01618:00140014
#0181a:14
#01814:00140000
#01818:0014
#01912:14
#01918:00140000
#01914:0014
#02418:1414
#02414:00140000
#0271a:14
#02714:00140000
#02718:0014
#02712:00000014
#03112:00000014
#03119:24
#03113:24
#04314:00000014
#04514:00000014
#04512:0024
#0451a:0024
#03418:14
#03412:00140000
#03718:0014
#03712:0014
#0371a:14
#03814:14
#0381a:00140000
#04714:14
#0471a:0014
#04712:0014
#04814:00140000
#04818:14
#04914:14
#0491a:00140000
#04912:0014
#04918:00000014
#05118:14
#05112:0014
#0511a:0014
#05218:00140000
#05214:14
#0531a:24000014
#05314:00000014
#05312:0024
#05318:0024
#06014:00140000
#0601a:0014
#06012:00000014
#06018:14
#0201a:14
#02014:00140000
#02018:0014
#02012:00000014
#02514:1414
#02518:00140000
#0291a:14
#02918:00140000
#03012:14
#03014:00140000
#04618:0000001400000000
#0461a:24
#0461f:21
#04610:0041
#05014:0000001400000000
#05012:24
#05518:14
#05512:0014
#0551a:0014
#05618:00140000
#05614:14
#05610:41
#05718:14000014
#05714:00140000
#0571a:0014
#05712:00000014
#0541a:0000001400000000
#05414:0000001400000000
#05418:24
#05412:24
#05914:14
#0591a:0014
#05912:0014
#05812:0000001400000000
#05818:0000001400000000
#05814:24
#0581a:24
#0401f:11
#0321a:24
#03210:41
#06118:24
#06114:0024
#03918:24
#03914:00240000
#0391a:0024
#03912:0024
#03910:41
#03612:24
#06218:24
#06314:24
#06412:24
#0641a:24
#02258:0014
#0325a:64
#03652:54
#06158:14
#06154:0014
#03153:14
#03159:14
#0295a:64
#02958:00240000
#03052:54
#03054:00240000
#0465a:64
#04658:0000002400000000
#05054:0000002400000000
#05052:54
#0545a:0000002400000000
#05458:54
#05454:0000002400000000
#05452:54
#05852:0000002400000000
#05858:0000002400000000
#05854:64
#0585a:64
#004390:1424
#005330:1424
#0093a0:1424
#012320:14
#012340:0024
#0133a0:14
#013380:0024
#017320:1424
#0213a0:14000000000000000000000000000054
#021380:00000000000000540000000000000000
#022380:0000003424000000
#0293a0:1424
#029380:00540000
#030320:1424
#030340:00540000
#0323a0:14
#032380:00000024
#0343a0:00001424
#036320:14
#036340:00000024
#038320:00001424
#040320:14
#040340:0034
#041320:34
#041340:0024
#0423a0:14
#042380:0034
#0433a0:34
#043380:0024
#044320:14
#045320:24
#0443a1:14
#0453a1:24
#0463a1:14000024
#046381:0000005400000000
#0483a1:00001424
#050321:14000024
#050341:0000005400000000
#052321:00001424
#054381:14000024
#0543a1:0000005400000000
#054320:14000024
#054340:0000005400000000
#056320:00001424
#058340:14000024
#058320:0000005400000000
#0583a1:14000024
#058381:0000005400000000
#062381:14000024
#063341:14000024
#064321:14000024
#0643a0:14000024
