This file was generated by Ched 2.7.0.0.
#TITLE ""
#ARTIST ""
#DESIGNER ""
#DIFFICULTY 0
#PLAYLEVEL
#SONGID ""
#WAVE ""
#WAVEOFFSET 0
#JACKET ""
#REQUEST "ticks_per_beat 480"
#00002: 4
#BPM01: 175
#00008: 01
#TIL00: ""
#HISPEED 00
#MEASUREHS 00
#00012:14
#00118:14
#00214:14
#0031a:14
#00414:14
#00518:14
#0081a:14
#00914:14
#01018:14
#01112:14
#01218:14
#01314:14
#02013:14
#02019:00000014
#02412:00000016
#02418:26
#02818:00000016
#02812:26
#03218:00000016
#03212:26
#03612:00000016
#03618:26
#03610:41
#0401a:14
#04114:14
#04218:14
#04312:14
#06518:00000016
#06512:26
#0651f:21
#06718:00000016
#06812:0016
#06912:00000016
#06918:26
#07112:00000016
#07218:0016
#07318:00000016
#07312:26
#07518:00000016
#07612:0016
#07712:00000016
#07718:26
#07710:41
#0571f:11
#06610:41
#01610:41
#02610:41
#04810:41
#006320:14
#007320:24
#0143a0:14
#0153a0:24
#016330:1434343424000000
#018390:1434343424000000
#021330:0000000014000034
#023330:24
#025380:0000000016363636
#026380:26
#026320:00000016
#027320:36362600
#029320:0000000016363636
#030320:26
#030380:00000016
#031380:36362600
#033320:0000000016363636
#034320:26
#034380:00000016
#035380:36362600
#037380:0000000016363636
#038380:26
#038320:00000016
#039320:0026
#0443a0:1434
#0453a0:24
#046340:1434
#047340:24
#048380:1434
#049380:24
#050320:1434
#051320:24
#052390:1400003400002400
#053330:1400003400002400
#054390:1400003400003400
#056390:24
#057320:14
#057330:0000003400000000
#057340:00000024
#0583a0:00001434
#0593a0:34
#059390:0000003400000000
#059380:00000034
#060380:0034000024000000
#061340:14
#061330:0000003400000000
#061320:00000024
#062380:00001434
#063380:34
#063390:0000003400000000
#0633a0:00000034
#0643a0:0034000024000000
#066320:0000000016363636
#067320:26
#070380:0000000016363636
#071380:26
#074320:0000000016363636
#075320:26
#078380:0000000016363636
#079380:26
#079320:00000016
#080320:0026
#0813a0:14
#082380:0024
#083320:14
#084340:0024
#0853a0:14
#086380:0024
#087320:14
#088340:0054
#089340:0024
