This file was generated by Ched 2.7.0.0.
#TITLE ""
#ARTIST ""
#DESIGNER ""
#DIFFICULTY 0
#PLAYLEVEL
#SONGID ""
#WAVE ""
#WAVEOFFSET 0
#JACKET ""
#REQUEST "ticks_per_beat 480"
#00002: 4
#BPM01: 175
#00008: 01
#TIL00: ""
#HISPEED 00
#MEASUREHS 00
#00017:0013000000000000
#0001b:0000131300000013
#00018:00001313
#00015:0000000000130000
#00012:0013000000000013
#00016:00330000
#0011b:0000001300000000
#00117:0000000013130000
#00115:00000013
#00118:0000000000000013
#00116:0000001300000000
#00112:0033
#0021b:1300130000000012
#00215:00130012
#00213:0000000000120000
#00217:0000000000120012
#00218:0013000000000000
#00219:00000012
#0041b:0000000000130013
#00412:13130000
#00418:00130000
#00415:0013000000000000
#00416:0000000000130000
#00517:0000000000130000
#00519:00000013
#0051b:0000000000000013
#00612:0013000000000013
#00614:00130000
#00616:0000001300000000
#0061b:0000000000000013
#00715:13001313
#00718:0013001313001300
#0071b:0000130000130000
#01718:0000001300130013
#01715:0000001300001300
#01712:0013
#01917:0000001300000000
#0191b:0000000000130000
#01918:00000013
#01915:0000000000000013
#01912:0000001300000000
#0201b:13131323
#02018:0013001300000000
#02012:23232313
#02015:0000000000000013
#0211b:23231300
#02119:00000013
#02118:0000000000000013
#0211a:0000000000130000
#02115:0013000000000013
#02112:13131300
#02114:00000013
#02113:0000000000130000
#02318:2300000000000013
#02312:2300000000240013
#02319:0023000000000000
#0231a:0000230000240000
#0231b:0000002300000000
#02313:0023000000000000
#02314:00230000
#02315:0000002300000000
#02418:00130000
#02412:2300000000130000
#02415:0000001300000000
#0241b:23000013
#02512:0000001323002300
#02518:1300000000130000
#0251b:00001313
#02515:0013000000000013
#02615:00130000
#02618:0000001300000000
#0261b:2300000000130000
#02612:23000013
#02610:41
#02718:0013000000000000
#02715:13
#0271b:0000001300000000
#02717:0013
#02712:0013
#0321b:0000131300000000
#03217:2300000000131300
#03212:23
#0331b:1313000000000000
#03317:0000001313000000
#03315:0000000000130000
#03319:00000013
#03318:0000000000000013
#03312:0023
#03314:00000023
#03417:0000131300000000
#0341b:2300000000131300
#03416:23
#03517:1313000000000000
#0351b:0000001313000000
#03516:0013
#03912:0000001400000000
#03914:0014
#03916:0013000000140000
#03918:00000014
#0391a:0000000000000014
#04013:1212
#0401a:00120000000000000000000000001200
#04014:00001200000012000000000000000012
#04019:00000012000000120000000000000000
#04015:00120000
#04018:00000000001200000000000000000000
#0401c:00000012
#04016:00000000000000000000000000120000
#04413:0012000000000012
#04417:12000012000000001200000012000000
#04415:00000000001200000000000000000000
#04419:0000001200000000
#0441b:00000000000000000012000000000000
#04412:00000000000000000000001200000000
#04418:00000000000000000000000000000012
#04516:00000000000000120000000000000000
#04517:00000012
#04514:00120000000000000000000000000000
#04519:0012000000000000
#04515:00120000
#0451a:00000000001200000000000000000000
#0451b:000000000000000000003232
#04613:12
#04612:00000032323232320000000012000000
#04617:00000032323232320000000012000000
#04819:12
#0481c:00120000
#0481a:0000001200000000
#04817:0000000000120000
#04815:00000012
#04810:41
#05013:0000001200000022
#0501b:2200000000120000
#05019:00000012
#05017:2200000000120022
#05015:00000012
#05112:0000001300130000
#05115:00000013
#05118:0000000000000013
#0511b:0000001300000000
#0521b:1300000000131300
#05217:0000131300000000
#05218:0000000000000013
#05212:2400002400002400
#05417:00130000
#05416:0000000000130000
#0541a:2400002400002434
#05412:2400002400002400
#05618:0000000000000013
#05612:0000000000000013
#05718:1300000000131300
#0571b:0000131300000000
#0571f:11
#0581b:1313000000001300
#05818:0000001313000000
#05912:0000131300000000
#05915:0000000000131300
#06012:1313000000000000
#06015:0000001313000013
#0601b:0000000000000013
#06518:0000130000130013
#0651b:2300001300001300
#06515:0013000000001300
#06512:2300001300000000
#0651f:21
#06612:0013000023002300
#06615:1300000000130000
#06618:0000001300000013
#0661b:0013000013001300
#06610:41
#06715:00130013
#06718:0013001300130013
#06712:2300001300000000
#0671b:23000013
#06818:0013001300000000
#06815:13130000
#0681b:0013
#06812:0013000013000000
#07318:00131313
#0731b:2300001300000000
#07315:0013001300130013
#07312:23000013
#0741b:0013000000000000
#07418:13130000
#07415:0013001300000000
#07414:0000000000130013
#07416:00000013
#07412:0013
#0751b:0000131300001300
#07512:2300001300131300
#07517:0000000000130000
#07516:00130000
#07617:0000001300000000
#07615:0000000013131313
#07618:00000000000000000013001300130013
#0761b:1313000000000000
#07612:0013001300000000
#07616:13
#08315:1212000000000000
#08314:0000001200000000
#08312:0000000000120000
#08316:0000000000000012
#0831a:0000001200000000
#08318:0000000000120000
#0831c:0000000000000012
#08319:0012000000000000
#00312:0000001300000000
#00316:0000000013130000
#00318:00000013
#00315:0000000000000013
#00317:0000001300000000
#0031b:0033
#00816:0013000000000000
#00812:0000131300000013
#00815:00001313
#00818:0000000000130000
#0081b:0013000000000013
#00817:00330000
#00912:0000001300000000
#00916:0000000013130000
#00918:00000013
#00915:0000000000000013
#00917:0000001300000000
#0091b:0033
#01012:13130000
#01018:00130000
#0101b:0000000000120000
#01019:00000012
#01017:0000000000120012
#01015:0013000000001200
#01013:0000000000000012
#01212:0000000000130013
#0121b:13130000
#01215:00130000
#01218:0013000000000000
#01217:0000000000130000
#01316:0000000000130000
#01314:00000013
#01312:0000000000000013
#0141b:0013000000000013
#01419:00130000
#01417:0000001300000000
#01412:0000000000000013
#01518:13001313
#01515:0013001313001300
#01512:0000130000130000
#0111b:0000001300000000
#01117:0000000013130000
#01115:00000013
#01118:0000000000000013
#01116:0000001300000000
#01112:0033
#0161b:0013131313000000
#01612:0013131313000000
#01618:00000023
#01615:0000000000000023
#01610:41
#01812:1313131313000000
#0181b:1313131313000000
#01815:00000023
#01818:0000000000000023
#0221b:00000000001300000000000000000000
#02212:00000000001300000000000000000000
#02815:00130000
#0281b:2300000000130000
#02818:0000001300000000
#02812:23000013
#0291b:0000001323002300
#02915:1300000000130000
#02912:00001313
#02918:0013000000000013
#03018:00130000
#03015:0000001300000000
#03012:2300000000130000
#0301b:23000013
#03115:0013000000000000
#03118:13
#03112:0000001300000000
#03116:0013
#0311b:0013
#03612:0000131300000000
#03616:2300000000131300
#0361b:23
#03610:41
#03712:1313000000000000
#03716:0000001313000000
#03718:0000000000130000
#03714:00000013
#03715:0000000000000013
#0371b:0023
#03719:00000023
#03816:0000132300000000
#03817:2300000000132300
#03812:23000023
#0381b:0000002300000000
#04218:1212000012120000
#04214:00120012000000000000000000000000
#0421a:0000121200000000
#04216:00000000001200120000000000120012
#04212:00000000000000000012001200000000
#0421c:0000000000001212
#04912:12
#04914:0012000000000000
#04917:0000001200001200
#04913:0012
#04915:0000000000120000
#04919:0000000000000012
#05312:1300000000131300
#05316:0000131300000000
#05315:0000000000000013
#0531a:2400002400002400
#05516:00000000001400000000000000000000
#05512:0000000000000024
#0551a:3434343434343400
#06115:1300000000131300
#06112:0000131300000000
#06212:1313000000001300
#06215:0000001313000000
#0631b:0000131300000000
#06318:0000000000131300
#0641b:1313000000000000
#06418:0000001313000000
#06915:0000130000130013
#06912:2300001300001300
#06918:0013000000001300
#0691b:2300001300000000
#0701b:0013000023002300
#07018:1300000000130000
#07015:0000001300000013
#07012:0013000013001300
#07118:00130013
#07115:0013001300130013
#0711b:2300001300000000
#07112:23000013
#07215:00001300000013000033333300000000
#07218:13000000130000000033333300000000
#07212:0013
#0721b:0013000013000000
#07715:00131313
#07712:2300001300000000
#07718:0013001300130013
#0771b:00000013
#07710:41
#07812:0013000000000000
#07815:13130000
#07818:0013001300000000
#07819:0000000000130013
#07817:00000013
#0781b:0013
#08414:0000001200000000
#08417:0000000000120000
#0841c:0000000000220000
#08515:1212000000000000
#08514:0000001200000000
#08512:0000000000120000
#08516:0000000000000012
#0851a:0000001200000000
#08518:0000000000120000
#0851c:0000000000000012
#08519:0012000000000000
#08614:0000001200000000
#08617:0000000000120000
#0861c:0000000000220000
#08715:1212000000000000
#08714:0000001200000000
#08712:0000000000120000
#08716:0000000000000012
#0871a:0000001200000000
#08718:0000000000120000
#0871c:0000000000000012
#08719:0012000000000000
#08814:0000001200000000
#08817:0000000000120000
#0881c:0000000000220000
#07915:0000000000130000
#07918:00130000
#0791b:2300002300232300
#07912:0000232300002300
#04715:0022
#0471a:00000000000000000022000000000000
#04717:0000000000220000
#08012:0000002400000000
#08014:0024
#08016:0000000000240000
#08018:00000024
#0801a:0000000000000024
#08017:0023000000000000
#04113:00000000003200320000000000000000
#04118:00320032000000000000000000000000
#04115:00000000000000000000000000320032
#0411b:00000000000000000032003200000000
#00052:0053000000000000
#00156:0000005300000000
#00357:0000006300000000
#00456:0000000000530000
#0045b:0000000000000053
#00556:0000000000000013
#0065b:0000001300000000
#00758:00006363
#00755:00000063
#0075b:0000000000230000
#01558:00000053
#01555:00005353
#01552:0000000000230000
#0085b:0063000000000000
#00957:0000006300000000
#01156:0000005300000000
#01252:0000000000000063
#01257:0000000000630000
#01357:0000000000000013
#01452:0000001300000000
#01652:0013
#0165b:0013
#01852:0013
#0185b:0013
#01755:0000005300000000
#01752:0023
#01952:0000005300000000
#02158:0000000000000053
#02155:0000000000000063
#0225b:00000000002300000000000000000000
#02252:00000000002300000000000000000000
#0235a:0000000000140000
#02352:0000000000140000
#0245b:13000013
#02455:0000001300000000
#02555:0013000000000000
#02652:13000013
#02658:0000001300000000
#02758:0013000000000000
#02752:0053
#02757:0053
#02858:0000001300000000
#02852:13000013
#03055:0000001300000000
#0305b:13000013
#03155:0013000000000000
#03156:0063
#0315b:0063
#02958:0013000000000000
#03257:13000013
#0325b:0000001300000000
#0335b:0013000000000000
#0345b:13000013
#03457:0000001300000000
#03557:0013000000000000
#03556:0053
#0355b:0053
#03652:0000001300000000
#03656:13000013
#03752:0013000000000000
#03852:13000013
#0385b:0000001300000000
#03857:00000053
#05053:0000000000000052
#05057:0000000000000052
#0515b:0000005300000000
#0545a:00000054
#05556:00000000002400000000000000000000
#0655b:1300001300000000
#06555:00000013
#06652:0013000000000000
#06752:13
#06758:0000001300000000
#06755:00000013
#06858:0013000000000000
#0685b:0053
#06852:0063
#06952:1300001300000000
#06958:00000013
#0705b:0013000000000000
#07155:0000001300000000
#07158:00000013
#0715b:13
#07255:0013000000000000
#07252:0063
#0725b:0053
#0735b:13
#07355:0000001300000000
#07358:00000013
#07455:0013000000000000
#07552:13000013
#0755b:0000001300000000
#0765b:0013000000000000
#07755:00000013
#07758:0000001300000000
#07752:13
#07858:0013000000000000
#0795b:13000013
#07952:0000001300000000
#06055:0013
#06458:0013
#000320:0013000000000000
#000360:0000332300000000
#001360:0000001300000000
#001320:0000000033230000
#003370:0000001300000000
#0033b0:0000000033230000
#004360:0000000000130000
#005320:0033000000000000
#005340:00000033000000000000000000000000
#005360:00230000
#0043b1:0000000000000013
#005371:0033000000000000
#005391:00000033000000000000000000000000
#0053b1:00230000
#005321:0000000000130000
#005341:00000033
#005361:0000000000000023
#006371:0013000000000000
#006391:00330000
#0063b1:0000002300000000
#007381:00001333
#0073b1:0000000000530000
#0083b1:23
#007350:00000013
#008320:23
#0083b0:0013000000000000
#008370:0000332300000000
#009370:0000001300000000
#0093b0:0000000033230000
#011360:0000001300000000
#011320:0000000033230000
#012370:0000000000130000
#0133b0:0033000000000000
#013390:00000033000000000000000000000000
#013370:00230000
#012321:0000000000000013
#013361:0033000000000000
#013341:00000033000000000000000000000000
#013321:00230000
#0133b1:0000000000130000
#013391:00000033
#013371:0000000000000023
#014361:0013000000000000
#014341:00330000
#014321:0000002300000000
#015351:00001333
#015321:0000000000530000
#016321:23
#015380:00000013
#0163b0:23
#017350:0000001300230000
#017320:0053
#019320:0000001300000000
#019360:0000000000230000
#021380:0000000000000013
#0223b0:00000000005300000000000000000000
#022380:00000023
#021351:0000000000000013
#022321:00000000005300000000000000000000
#022351:00000023
#024321:13
#024351:00230000
#024381:0000001300000000
#0243b1:0000000000230000
#024321:00000013
#025351:23
#025381:0013000000000000
#0253b1:0000002300000000
#0263b1:13
#026381:00230000
#026351:0000001300000000
#026321:0000000000230000
#0263b1:00000013
#027381:23
#027351:0013000000000000
#027321:0000002300000000
#027371:0013
#0273b1:00000023
#027320:0013
#027360:00000023
#0283b0:13
#028380:00230000
#028350:0000001300000000
#028320:0000000000230000
#0283b0:00000013
#029380:23
#029350:0013000000000000
#029320:0000002300000000
#030320:13
#030350:00230000
#030380:0000001300000000
#0303b0:0000000000230000
#030320:00000013
#031350:23
#031380:0013000000000000
#0313b0:0000002300000000
#031360:0013
#031320:00000023
#0313b1:0013
#031371:00000023
#032321:13
#032361:00230000
#032361:0000001300000000
#032321:0000000000230000
#032321:00000013
#033361:23
#033361:0013000000000000
#033321:0000002300000000
#034361:13
#034321:00230000
#034321:0000001300000000
#034361:0000000000230000
#034361:00000013
#035321:23
#035321:0013000000000000
#035361:0000002300000000
#035361:0013
#035321:00000023
#0353b0:0013
#035370:00000023
#0363b0:13
#036370:00230000
#036370:0000001300000000
#0363b0:0000000000230000
#0363b0:00000013
#037370:23
#037370:0013000000000000
#0373b0:0000002300000000
#038370:13
#0383b0:00230000
#038360:0000001300000000
#038320:0000000000230000
#038370:00000013
#0393b0:0023000000000000
#041380:12320032220000000000000000000000
#0413b0:0032000000000000
#041331:00000000123200322200000000000000
#041361:0000003200000000
#0413b0:00000000000000001232003222000000
#041380:0000000000320000
#041351:00000000000000000000000012320032
#041321:0000000000000032
#042351:22
#0433c1:12
#0433b1:00320000000000000000000000000000
#0433a1:0032000000000000
#043391:00000032000000000000000000000000
#043381:00220000
#043360:00120000
#043350:00000000003200000000000000000000
#043340:0000003200000000
#043330:00000000000000320000000000000000
#043320:0022
#0433c1:0012
#0433b1:00000000000000000032000000000000
#0433a1:0000000000320000
#043391:00000000000000000000003200000000
#043381:00000022
#043360:00000012
#043350:00000000000000000000000000320000
#043340:0000000000000032
#043330:00000000000000000000000000000032
#044320:22
#0453b0:000000000000123232323232
#046370:22
#046370:00001232323232320000000000000000
#0463c0:0022
#046321:00001232323232320000000000000000
#046371:0022
#0463a1:0000000000000012
#046391:00000000000000000000000000000032
#0473a1:3232323222000000
#047391:00320032003200320000000000000000
#048341:12
#048371:00220000
#048351:0000001200000000
#048321:0000000000220000
#0483a1:00000012
#049371:22
#049391:0012000000000000
#0493c1:0000002200000000
#0503b1:12
#050371:0000002200000000
#050331:0000000000000012
#051371:00220000
#050370:0000000000000012
#0513b0:00220000
#0513b0:0000001300000000
#051370:0000000000230000
#0543a0:0000000000001434
#0553a0:3434343434343424
#055360:00000000005400000000000000000000
#057320:13330033
#057350:0000003300330000
#058320:3300000033333333
#058350:0033003300000000
#059320:23
#059381:13330033
#0593b1:0000003300330000
#060381:3323
#0603b1:0033003300000000
#0613b1:13330033
#061381:0000003300330000
#0623b1:3300000033333333
#062381:0033003300000000
#0633b1:23
#063350:13330033
#063320:0000003300330000
#064350:3323
#064320:0033003300000000
#0683b0:0013
#068380:00000023
#068321:0013
#068351:00000023
#072321:0013
#072351:00000000000000000033333323000000
#0723b0:0013
#072380:00000000000000000033333323000000
#074370:0013
#074390:0000000000330033
#0743b0:00000033
#075370:23
#078360:0013
#078340:0000000000330033
#078320:00000033
#079360:23
#079320:00000013
#080320:0023000000000000
#0803a0:0000000000000014
#0823a0:0024
#0843b0:0012000000000000
#084390:00000032000000000000000000000000
#084370:00220000
#0863b0:0012000000000000
#086390:00000032000000000000000000000000
#086370:00220000
#0883b0:0012000000000000
#088390:00000032000000000000000000000000
#088370:00220000
#0883c0:0000000000120000
#0893c0:0022
